<?xml version="1.0" standalone="no"?>
<!DOCTYPE svg PUBLIC "-//W3C//DTD SVG 1.1//EN" "http://www.w3.org/Graphics/SVG/1.1/DTD/svg11.dtd" >
<svg xmlns="http://www.w3.org/2000/svg" xmlns:xlink="http://www.w3.org/1999/xlink" version="1.1">
<metadata>
Created by FontForge 20190801 at Thu Nov 16 14:46:01 2023
 By www-data
Copyright 2020 The Open Sans Project Authors (https://github.com/googlefonts/opensans)
</metadata>
<defs>
<font id="OpenSans-Regular" horiz-adv-x="0" >
  <font-face 
    font-family="Open Sans"
    font-weight="400"
    font-stretch="normal"
    units-per-em="2048"
    panose-1="0 0 0 0 0 0 0 0 0 0"
    ascent="1638"
    descent="-410"
    x-height="1096"
    cap-height="1462"
    bbox="-1124 -557 2460 2146"
    underline-thickness="50"
    underline-position="-125"
    unicode-range="U+000D-FFFD"
  />
<missing-glyph horiz-adv-x="1229" 
 />
    <glyph glyph-name="f_f" unicode="ff" horiz-adv-x="1378" 
d="M663 966h-273v-966h-166v966h-194v80l194 55v73q0 138 41 224.5t119 127.5t190 41q63 0 115.5 -11t92.5 -25l-43 -131q-34 11 -76.5 20.5t-86.5 9.5q-95 0 -140.5 -61.5t-45.5 -192.5v-80h273v-130zM1352 966h-273v-966h-166v966h-194v80l194 55v73q0 138 41 224.5
t119 127.5t190 41q63 0 115.5 -11t92.5 -25l-43 -131q-34 11 -76.5 20.5t-86.5 9.5q-95 0 -140.5 -61.5t-45.5 -192.5v-80h273v-130z" />
    <glyph glyph-name="fi" unicode="fi" horiz-adv-x="1206" 
d="M663 966h-273v-966h-166v966h-194v80l194 55v73q0 138 41 224.5t119 127.5t190 41q63 0 115.5 -11t92.5 -25l-43 -131q-34 11 -76.5 20.5t-86.5 9.5q-95 0 -140.5 -61.5t-45.5 -192.5v-80h273v-130zM1030 1096v-1096h-166v1096h166zM949 1506q41 0 70.5 -26.5t29.5 -82.5
q0 -55 -29.5 -82t-70.5 -27q-43 0 -71.5 27t-28.5 82q0 56 28.5 82.5t71.5 26.5z" />
    <glyph glyph-name="fl" unicode="fl" horiz-adv-x="1206" 
d="M663 966h-273v-966h-166v966h-194v80l194 55v73q0 138 41 224.5t119 127.5t190 41q63 0 115.5 -11t92.5 -25l-43 -131q-34 11 -76.5 20.5t-86.5 9.5q-95 0 -140.5 -61.5t-45.5 -192.5v-80h273v-130zM1031 0h-167v1556h167v-1556z" />
    <glyph glyph-name="f_f_i" unicode="ffi" horiz-adv-x="1894" 
d="M663 966h-273v-966h-166v966h-194v80l194 55v73q0 138 41 224.5t119 127.5t190 41q63 0 115.5 -11t92.5 -25l-43 -131q-34 11 -76.5 20.5t-86.5 9.5q-95 0 -140.5 -61.5t-45.5 -192.5v-80h273v-130zM1352 966h-273v-966h-166v966h-194v80l194 55v73q0 138 41 224.5
t119 127.5t190 41q63 0 115.5 -11t92.5 -25l-43 -131q-34 11 -76.5 20.5t-86.5 9.5q-95 0 -140.5 -61.5t-45.5 -192.5v-80h273v-130zM1719 1096v-1096h-166v1096h166zM1638 1506q41 0 70.5 -26.5t29.5 -82.5q0 -55 -29.5 -82t-70.5 -27q-43 0 -71.5 27t-28.5 82
q0 56 28.5 82.5t71.5 26.5z" />
    <glyph glyph-name="f_f_l" unicode="ffl" horiz-adv-x="1894" 
d="M663 966h-273v-966h-166v966h-194v80l194 55v73q0 138 41 224.5t119 127.5t190 41q63 0 115.5 -11t92.5 -25l-43 -131q-34 11 -76.5 20.5t-86.5 9.5q-95 0 -140.5 -61.5t-45.5 -192.5v-80h273v-130zM1352 966h-273v-966h-166v966h-194v80l194 55v73q0 138 41 224.5
t119 127.5t190 41q63 0 115.5 -11t92.5 -25l-43 -131q-34 11 -76.5 20.5t-86.5 9.5q-95 0 -140.5 -61.5t-45.5 -192.5v-80h273v-130zM1720 0h-167v1556h167v-1556z" />
    <glyph glyph-name=".notdef" horiz-adv-x="1229" 
 />
    <glyph glyph-name="NULL" 
 />
    <glyph glyph-name="NULL" 
 />
    <glyph glyph-name="CR" unicode="&#xd;" horiz-adv-x="532" 
 />
    <glyph glyph-name="space" unicode=" " horiz-adv-x="532" 
 />
    <glyph glyph-name="exclam" unicode="!" horiz-adv-x="541" 
d="M325 406h-109l-46 1056h201zM150 104q0 70 34 99.5t85 29.5q50 0 84.5 -29.5t34.5 -99.5q0 -69 -34.5 -100.5t-84.5 -31.5q-51 0 -85 31.5t-34 100.5z" />
    <glyph glyph-name="quotedbl" unicode="&#x22;" horiz-adv-x="816" 
d="M315 1462l-38 -528h-105l-37 528h180zM681 1462l-37 -528h-105l-37 528h179z" />
    <glyph glyph-name="numbersign" unicode="#" horiz-adv-x="1323" 
d="M980 899l-65 -340h283v-127h-308l-85 -432h-135l85 432h-305l-82 -432h-133l79 432h-262v127h287l67 340h-278v125h301l83 438h137l-83 -438h307l83 438h132l-83 -438h265v-125h-290zM474 559h305l66 340h-305z" />
    <glyph glyph-name="dollar" unicode="$" horiz-adv-x="1171" 
d="M518 -119v210q-115 2 -219.5 20t-170.5 47v162q69 -32 177 -56t213 -26v440q-132 37 -218.5 84.5t-129.5 116.5t-43 167q0 102 48.5 174.5t136.5 113.5t206 47v173h122v-171q107 -3 195 -23.5t163 -52.5l-52 -139q-68 27 -147 46t-159 26v-437q134 -39 224.5 -83
t136.5 -109t46 -168q0 -146 -107 -235.5t-300 -108.5v-218h-122zM640 247q123 12 183.5 59.5t60.5 125.5q0 56 -23.5 92t-76.5 62.5t-144 50.5v-390zM518 845v391q-75 -5 -126 -28t-76.5 -60t-25.5 -88q0 -59 22.5 -98.5t73 -67t132.5 -49.5z" />
    <glyph glyph-name="percent" unicode="%" horiz-adv-x="1693" 
d="M399 1483q150 0 227.5 -119.5t77.5 -337.5t-75 -339.5t-230 -121.5q-144 0 -220.5 121.5t-76.5 339.5t73 337.5t224 119.5zM399 1364q-81 0 -119 -84.5t-38 -253.5t38 -255t119 -86q84 0 125 86t41 255q0 168 -40.5 253t-125.5 85zM1325 1462l-811 -1462h-146l811 1462
h146zM1286 897q149 0 227 -119.5t78 -337.5q0 -217 -75 -338.5t-230 -121.5q-145 0 -221 121.5t-76 338.5q0 218 72.5 337.5t224.5 119.5zM1286 777q-81 0 -119 -84t-38 -253t38 -254.5t119 -85.5q84 0 125 84.5t41 255.5q0 168 -40.5 252.5t-125.5 84.5z" />
    <glyph glyph-name="ampersand" unicode="&#x26;" horiz-adv-x="1492" 
d="M623 1485q108 0 186.5 -37.5t121 -107.5t42.5 -169q0 -130 -84.5 -220t-214.5 -164l406 -394q55 64 90 148.5t59 183.5h168q-32 -132 -82.5 -243t-126.5 -195l293 -287h-225l-181 177q-64 -59 -137.5 -103.5t-163 -69t-204.5 -24.5q-140 0 -243 46t-159.5 135t-56.5 218
q0 106 39 182t111 135t172 115q-47 52 -89 105.5t-68 115t-26 135.5q0 100 45.5 171t129 109t198.5 38zM533 706q-78 -45 -133.5 -89t-85 -99t-29.5 -133q0 -117 79 -187.5t211 -70.5q136 0 231.5 45t162.5 109zM617 1348q-91 0 -147.5 -47.5t-56.5 -132.5q0 -76 41 -140
t117 -142q125 69 181.5 133.5t56.5 151.5q0 79 -52.5 128t-139.5 49z" />
    <glyph glyph-name="quotesingle" unicode="'" horiz-adv-x="449" 
d="M315 1462l-38 -528h-105l-37 528h180z" />
    <glyph glyph-name="parenleft" unicode="(" horiz-adv-x="604" 
d="M82 561q0 169 32.5 329t99.5 305t169 267h159q-145 -190 -218 -422t-73 -477q0 -160 32.5 -315.5t97 -299.5t159.5 -272h-157q-102 120 -169 261.5t-99.5 299.5t-32.5 324z" />
    <glyph glyph-name="parenright" unicode=")" horiz-adv-x="604" 
d="M522 563q0 -167 -32.5 -325.5t-99 -300.5t-169.5 -261h-157q96 127 160.5 272t97 300.5t32.5 315.5q0 163 -33 321t-97.5 304t-161.5 273h159q103 -123 169.5 -267.5t99 -304t32.5 -327.5z" />
    <glyph glyph-name="asterisk" unicode="*" horiz-adv-x="1128" 
d="M651 1556l-38 -397l395 115l26 -175l-378 -39l244 -325l-162 -89l-181 356l-166 -356l-168 89l242 325l-376 39l28 175l389 -115l-39 397h184z" />
    <glyph glyph-name="plus" unicode="+" horiz-adv-x="1171" 
d="M652 790h412v-136h-412v-424h-137v424h-412v136h412v426h137v-426z" />
    <glyph glyph-name="comma" unicode="," horiz-adv-x="530" 
d="M365 238l13 -23q-18 -73 -45.5 -156t-60 -166.5t-65.5 -156.5h-124q21 80 41 168.5t36.5 175t26.5 158.5h178z" />
    <glyph glyph-name="hyphen" unicode="-" horiz-adv-x="659" 
d="M82 476v148h496v-148h-496z" />
    <glyph glyph-name="period" unicode="." horiz-adv-x="538" 
d="M150 104q0 70 34 99.5t83 29.5q51 0 86 -29.5t35 -99.5q0 -69 -35 -100.5t-86 -31.5q-49 0 -83 31.5t-34 100.5z" />
    <glyph glyph-name="slash" unicode="/" horiz-adv-x="751" 
d="M729 1462l-544 -1462h-164l545 1462h163z" />
    <glyph glyph-name="zero" unicode="0" horiz-adv-x="1171" 
d="M1067 733q0 -178 -27 -318t-85 -237t-150 -147.5t-221 -50.5q-163 0 -269.5 89t-159 257.5t-52.5 406.5q0 234 47.5 402.5t153.5 259t280 90.5q165 0 272 -89.5t159 -258t52 -404.5zM270 733q0 -204 31 -340t100.5 -203.5t182.5 -67.5t182.5 67t101 203t31.5 341
q0 201 -31 336.5t-100 204t-184 68.5t-184 -68.5t-99.5 -204t-30.5 -336.5z" />
    <glyph glyph-name="one" unicode="1" horiz-adv-x="1171" 
d="M719 0h-162v1036q0 59 0.5 101.5t2 78t4.5 72.5q-31 -32 -58 -54.5t-67 -55.5l-167 -134l-87 113l396 305h138v-1462z" />
    <glyph glyph-name="two" unicode="2" horiz-adv-x="1171" 
d="M1059 0h-958v139l391 397q109 110 183.5 196t113.5 169.5t39 183.5q0 124 -73.5 189.5t-193.5 65.5q-105 0 -186 -36t-166 -102l-89 112q58 49 126.5 87t147 60t167.5 22q135 0 233 -47t151.5 -134t53.5 -207q0 -116 -46 -215.5t-129 -197t-194 -206.5l-318 -317v-7h747
v-152z" />
    <glyph glyph-name="three" unicode="3" horiz-adv-x="1171" 
d="M1005 1121q0 -98 -38 -170t-106 -117.5t-160 -63.5v-8q174 -22 261.5 -112t87.5 -236q0 -127 -59.5 -225t-182 -153.5t-313.5 -55.5q-116 0 -214.5 18.5t-188.5 61.5v156q91 -45 198 -70.5t207 -25.5q200 0 289 79.5t89 217.5q0 95 -49.5 153.5t-142 86t-222.5 27.5h-146
v142h147q119 0 202 35t126.5 98.5t43.5 150.5q0 111 -74 171.5t-201 60.5q-78 0 -142 -16t-120 -44t-112 -65l-84 114q80 62 195 107t261 45q224 0 336 -102t112 -260z" />
    <glyph glyph-name="four" unicode="4" horiz-adv-x="1171" 
d="M1132 339h-219v-339h-162v339h-707v140l696 991h173v-981h219v-150zM751 489v478q0 55 1 99.5t3 83t3.5 73.5t2.5 69h-8q-19 -40 -43.5 -84.5t-49.5 -79.5l-451 -639h542z" />
    <glyph glyph-name="five" unicode="5" horiz-adv-x="1171" 
d="M563 894q149 0 259 -50.5t170.5 -146.5t60.5 -233q0 -150 -65 -258.5t-187 -167t-292 -58.5q-114 0 -212 20t-165 60v158q73 -44 177 -70t202 -26q111 0 194.5 35.5t130 108t46.5 182.5q0 146 -89.5 225.5t-282.5 79.5q-62 0 -136 -10t-122 -22l-84 55l56 686h727v-152
h-585l-37 -441q38 8 98 16.5t136 8.5z" />
    <glyph glyph-name="six" unicode="6" horiz-adv-x="1171" 
d="M116 625q0 132 18.5 258t62.5 234.5t120 190.5t189.5 128.5t272.5 46.5q45 0 97 -4.5t86 -14.5v-143q-37 13 -84.5 19t-95.5 6q-186 0 -292.5 -81t-153.5 -219.5t-54 -311.5h11q31 50 79 90.5t116.5 64.5t159.5 24q128 0 223.5 -52t148 -151t52.5 -240q0 -151 -56 -261
t-159.5 -169.5t-246.5 -59.5q-107 0 -197 41t-156.5 122t-103.5 201.5t-37 280.5zM608 120q136 0 218 87t82 263q0 144 -73 228t-220 84q-100 0 -174 -41.5t-115 -104.5t-41 -128q0 -66 19.5 -134t59.5 -126t101 -93t143 -35z" />
    <glyph glyph-name="seven" unicode="7" horiz-adv-x="1171" 
d="M290 0l600 1310h-797v152h975v-128l-596 -1334h-182z" />
    <glyph glyph-name="eight" unicode="8" horiz-adv-x="1171" 
d="M584 1483q127 0 225 -40t153.5 -117.5t55.5 -190.5q0 -89 -38.5 -155.5t-103.5 -116t-144 -88.5q94 -43 169.5 -97t119.5 -127t44 -173q0 -123 -59.5 -212.5t-166.5 -137.5t-251 -48q-155 0 -263.5 46.5t-165 134t-56.5 210.5q0 101 43 175.5t114 128.5t155 91
q-73 40 -133.5 91t-96 119.5t-35.5 159.5q0 111 56.5 188.5t155 118t222.5 40.5zM266 370q0 -112 79 -184.5t239 -72.5q152 0 235 72.5t83 190.5q0 73 -38 128.5t-108 99.5t-165 80l-36 13q-92 -38 -156.5 -84.5t-98.5 -105.5t-34 -137zM582 1347q-118 0 -193 -56.5
t-75 -162.5q0 -76 36.5 -128.5t99.5 -90t141 -69.5q76 32 135 70.5t93 91.5t34 127q0 106 -74.5 162t-196.5 56z" />
    <glyph glyph-name="nine" unicode="9" horiz-adv-x="1171" 
d="M1061 839q0 -133 -18.5 -259t-63 -235t-120.5 -191t-190.5 -128.5t-273.5 -46.5q-43 0 -98 5.5t-90 15.5v144q37 -13 87 -20.5t98 -7.5q187 0 294 80.5t154 219t53 311.5h-12q-30 -48 -78.5 -88.5t-117.5 -65t-161 -24.5q-127 0 -221.5 52t-147 151t-52.5 239
q0 151 57.5 261.5t161.5 170.5t245 60q108 0 198 -41t156.5 -122.5t103 -201.5t36.5 -279zM567 1342q-133 0 -215.5 -87t-82.5 -262q0 -145 71 -229t219 -84q102 0 176.5 41t115 104t40.5 129t-19.5 134t-59.5 125.5t-101 93t-144 35.5z" />
    <glyph glyph-name="colon" unicode=":" horiz-adv-x="538" 
d="M150 104q0 70 34 99.5t83 29.5q51 0 86 -29.5t35 -99.5q0 -69 -35 -100.5t-86 -31.5q-49 0 -83 31.5t-34 100.5zM150 991q0 72 34 101.5t83 29.5q51 0 86 -29.5t35 -101.5q0 -68 -35 -99t-86 -31q-49 0 -83 31t-34 99z" />
    <glyph glyph-name="semicolon" unicode=";" horiz-adv-x="538" 
d="M348 238l14 -23q-18 -72 -46 -155.5t-60.5 -167t-64.5 -156.5h-126q21 79 41 167.5t37.5 175.5t27.5 159h177zM146 991q0 72 34 101.5t83 29.5q53 0 87 -29.5t34 -101.5q0 -68 -34 -99t-87 -31q-49 0 -83 31t-34 99z" />
    <glyph glyph-name="less" unicode="&#x3c;" horiz-adv-x="1171" 
d="M1065 243l-962 426v95l962 476v-148l-782 -369l782 -333v-147z" />
    <glyph glyph-name="equal" unicode="=" horiz-adv-x="1171" 
d="M115 858v135h938v-135h-938zM115 449v135h938v-135h-938z" />
    <glyph glyph-name="greater" unicode="&#x3e;" horiz-adv-x="1171" 
d="M103 390l783 331l-783 371v148l962 -476v-95l-962 -426v147z" />
    <glyph glyph-name="question" unicode="?" horiz-adv-x="884" 
d="M288 406v52q0 80 15 137.5t52.5 107.5t104.5 106q78 65 123.5 110.5t65.5 91.5t20 111q0 104 -67 159.5t-189 55.5q-99 0 -176 -25t-148 -60l-58 134q82 43 178 70t214 27q193 0 299 -95.5t106 -262.5q0 -93 -30 -158.5t-85 -120t-130 -115.5q-66 -56 -101 -98.5t-48 -87
t-13 -106.5v-33h-133zM244 104q0 70 33 99.5t85 29.5q49 0 83.5 -29.5t34.5 -99.5q0 -69 -34.5 -100.5t-83.5 -31.5q-52 0 -85 31.5t-33 100.5z" />
    <glyph glyph-name="at" unicode="@" horiz-adv-x="1836" 
d="M1719 730q0 -95 -21.5 -185.5t-65.5 -163t-109.5 -115.5t-154.5 -43q-93 0 -148 54t-66 128h-9q-38 -79 -111.5 -130.5t-180.5 -51.5q-156 0 -240.5 103.5t-84.5 275.5q0 134 53.5 237.5t151 163t230.5 59.5q89 0 173 -15t134 -33l-20 -403q-1 -37 -2 -56.5t-1 -30.5
q0 -108 38.5 -145.5t93.5 -37.5q67 0 112.5 52.5t69.5 141t24 196.5q0 191 -77 326t-212.5 206t-311.5 71q-175 0 -310.5 -55t-229 -155.5t-141.5 -238.5t-48 -305q0 -204 72.5 -347t213 -217.5t342.5 -74.5q122 0 235 27t202 61v-130q-88 -37 -197 -60.5t-240 -23.5
q-241 0 -412 90.5t-262 260.5t-91 408q0 193 59.5 355t172 281t273 184.5t361.5 65.5q215 0 380.5 -88.5t260 -252t94.5 -389.5zM677 598q0 -133 53 -195t147 -62q116 0 170.5 87t62.5 230l12 261q-29 9 -70.5 15.5t-86.5 6.5q-103 0 -166.5 -49t-92.5 -127t-29 -167z" />
    <glyph glyph-name="A" unicode="A" horiz-adv-x="1295" 
d="M1117 0l-180 464h-586l-179 -464h-172l572 1468h153l568 -1468h-176zM886 615l-171 461q-6 18 -19.5 59t-27.5 85t-23 71q-10 -41 -21.5 -81.5t-22.5 -75t-19 -58.5l-174 -461h478z" />
    <glyph glyph-name="B" unicode="B" horiz-adv-x="1323" 
d="M200 1462h414q274 0 412 -82t138 -279q0 -85 -32.5 -152.5t-94.5 -111.5t-153 -61v-10q96 -15 170 -55t116 -112t42 -183q0 -135 -62.5 -228t-176.5 -140.5t-270 -47.5h-503v1462zM370 835h280q191 0 264.5 63t73.5 184q0 125 -87.5 180t-278.5 55h-252v-482zM370 692
v-547h304q195 0 276 76.5t81 206.5q0 83 -36.5 142t-118 90.5t-217.5 31.5h-289z" />
    <glyph glyph-name="C" unicode="C" horiz-adv-x="1290" 
d="M825 1333q-121 0 -217.5 -41.5t-164 -120t-103.5 -189.5t-36 -250q0 -184 57.5 -319.5t172 -209.5t286.5 -74q98 0 184.5 16.5t168.5 41.5v-148q-80 -30 -168 -44.5t-209 -14.5q-223 0 -372.5 92.5t-224 261.5t-74.5 399q0 166 46.5 303.5t136 237.5t220 154.5
t299.5 54.5q111 0 214 -22t186 -63l-68 -144q-70 32 -153.5 55.5t-180.5 23.5z" />
    <glyph glyph-name="D" unicode="D" horiz-adv-x="1486" 
d="M1361 745q0 -247 -90 -412.5t-260.5 -249t-413.5 -83.5h-397v1462h441q223 0 384 -81.5t248.5 -241t87.5 -394.5zM1182 739q0 197 -65.5 325t-192 190.5t-309.5 62.5h-245v-1171h207q302 0 453.5 149t151.5 444z" />
    <glyph glyph-name="E" unicode="E" horiz-adv-x="1138" 
d="M1014 0h-814v1462h814v-150h-644v-473h607v-148h-607v-541h644v-150z" />
    <glyph glyph-name="F" unicode="F" horiz-adv-x="1057" 
d="M370 0h-170v1462h814v-150h-644v-536h605v-149h-605v-627z" />
    <glyph glyph-name="G" unicode="G" horiz-adv-x="1489" 
d="M825 766h511v-709q-115 -39 -236.5 -58t-271.5 -19q-228 0 -384.5 91t-237.5 259.5t-81 400.5q0 227 89.5 396t259 262.5t407.5 93.5q122 0 231.5 -22.5t203.5 -63.5l-65 -148q-81 35 -178.5 60t-201.5 25q-179 0 -306.5 -74t-195 -209t-67.5 -320q0 -183 59 -318.5
t184 -210.5t322 -75q99 0 170 11.5t129 27.5v448h-341v152z" />
    <glyph glyph-name="H" unicode="H" horiz-adv-x="1510" 
d="M1308 0h-170v689h-768v-689h-170v1462h170v-623h768v623h170v-1462z" />
    <glyph glyph-name="I" unicode="I" horiz-adv-x="572" 
d="M200 0v1462h170v-1462h-170z" />
    <glyph glyph-name="J" unicode="J" horiz-adv-x="550" 
d="M-11 -385q-50 0 -88 7t-65 19v145q32 -10 69 -15.5t80 -5.5q56 0 103 22t75 75t28 146v1454h171v-1441q0 -137 -45.5 -227t-129 -134.5t-198.5 -44.5z" />
    <glyph glyph-name="K" unicode="K" horiz-adv-x="1254" 
d="M1254 0h-201l-527 711l-156 -140v-571h-170v1462h170v-729q57 65 117 129.5t119 130.5l427 469h199l-582 -634z" />
    <glyph glyph-name="L" unicode="L" horiz-adv-x="1069" 
d="M200 0v1462h170v-1310h649v-152h-819z" />
    <glyph glyph-name="M" unicode="M" horiz-adv-x="1842" 
d="M843 0l-491 1294h-8q4 -41 7 -100t5 -128.5t2 -141.5v-924h-158v1462h252l463 -1216h7l470 1216h250v-1462h-168v936q0 65 2 130.5t5 124t6 101.5h-8l-497 -1292h-139z" />
    <glyph glyph-name="N" unicode="N" horiz-adv-x="1542" 
d="M1343 0h-196l-797 1228h-8q3 -49 7 -111.5t6.5 -133t2.5 -143.5v-840h-158v1462h195l794 -1224h7q-2 35 -5 99.5t-5.5 139t-2.5 138.5v847h160v-1462z" />
    <glyph glyph-name="O" unicode="O" horiz-adv-x="1593" 
d="M1468 733q0 -169 -43 -307.5t-127.5 -238t-209.5 -153.5t-290 -54q-170 0 -296.5 54t-210 154t-125 239t-41.5 308q0 224 74 393t224.5 263t377.5 94q217 0 365.5 -93t225 -261.5t76.5 -397.5zM304 733q0 -186 53 -322t162.5 -210t278.5 -74q170 0 278.5 74t160.5 210
t52 322q0 283 -118.5 442.5t-369.5 159.5q-170 0 -280 -73t-163.5 -207.5t-53.5 -321.5z" />
    <glyph glyph-name="P" unicode="P" horiz-adv-x="1232" 
d="M582 1462q283 0 413.5 -110.5t130.5 -316.5q0 -93 -30.5 -176.5t-98.5 -147t-178.5 -100t-270.5 -36.5h-178v-575h-170v1462h382zM566 1317h-196v-596h159q140 0 233.5 30t140.5 97.5t47 179.5q0 146 -93 217.5t-291 71.5z" />
    <glyph glyph-name="Q" unicode="Q" horiz-adv-x="1593" 
d="M1468 733q0 -180 -49 -326t-145.5 -247t-240.5 -147l344 -361h-243l-283 330q-13 0 -26.5 -1t-26.5 -1q-170 0 -296.5 54t-210 154t-125 239t-41.5 308q0 224 74 393t224.5 263t377.5 94q217 0 365.5 -93t225 -261.5t76.5 -397.5zM304 733q0 -186 53 -322t162.5 -210
t278.5 -74q170 0 278.5 74t160.5 210t52 322q0 283 -118.5 442.5t-369.5 159.5q-170 0 -280 -73t-163.5 -207.5t-53.5 -321.5z" />
    <glyph glyph-name="R" unicode="R" horiz-adv-x="1264" 
d="M595 1462q180 0 297.5 -44.5t175.5 -135.5t58 -232q0 -116 -42 -193.5t-110 -125.5t-145 -74l401 -657h-198l-358 610h-304v-610h-170v1462h395zM585 1315h-215v-561h232q179 0 263.5 73t84.5 215q0 149 -89.5 211t-275.5 62z" />
    <glyph glyph-name="S" unicode="S" horiz-adv-x="1123" 
d="M1025 389q0 -130 -64.5 -221.5t-180.5 -139.5t-273 -48q-83 0 -157 8t-136 23t-109 37v163q75 -31 183 -57.5t226 -26.5q110 0 186 29.5t115.5 85t39.5 133.5q0 75 -33 125.5t-109.5 92t-208.5 88.5q-93 33 -164 72.5t-119 89.5t-72.5 116t-24.5 151q0 117 59.5 200.5
t165 128t242.5 44.5q117 0 216.5 -22t182.5 -59l-53 -146q-79 33 -167.5 55t-182.5 22t-158.5 -27.5t-98.5 -77.5t-34 -119q0 -77 32.5 -128t104 -90.5t189.5 -82.5q129 -47 219 -99.5t137 -128t47 -191.5z" />
    <glyph glyph-name="T" unicode="T" horiz-adv-x="1128" 
d="M649 0h-171v1312h-460v150h1089v-150h-458v-1312z" />
    <glyph glyph-name="U" unicode="U" horiz-adv-x="1493" 
d="M1306 1462v-946q0 -155 -62.5 -276t-188.5 -190.5t-316 -69.5q-271 0 -412.5 147t-141.5 393v942h171v-947q0 -186 98.5 -287t294.5 -101q134 0 219.5 48.5t127 136t41.5 202.5v948h169z" />
    <glyph glyph-name="V" unicode="V" horiz-adv-x="1221" 
d="M1221 1462l-525 -1462h-171l-525 1462h178l342 -963q21 -58 37.5 -111t29.5 -102t23 -95q10 46 23 95.5t30 103t38 112.5l340 960h180z" />
    <glyph glyph-name="W" unicode="W" horiz-adv-x="1891" 
d="M1861 1462l-391 -1462h-171l-290 984q-13 42 -24.5 84.5t-21.5 81t-16.5 68t-9.5 44.5q-2 -15 -7.5 -44t-14 -67t-20 -81t-24.5 -87l-282 -983h-171l-388 1462h177l235 -917q12 -46 22.5 -90.5t19 -86.5t15.5 -82t13 -78q5 39 13 81.5t17.5 86.5t21 89t24.5 90l263 907
h175l274 -914q14 -47 26 -93t21.5 -89.5t17 -83t13.5 -74.5q7 49 17 103t23.5 113t29.5 122l235 916h178z" />
    <glyph glyph-name="X" unicode="X" horiz-adv-x="1183" 
d="M1176 0h-193l-395 644l-401 -644h-181l487 762l-453 700h189l365 -583l367 583h180l-452 -697z" />
    <glyph glyph-name="Y" unicode="Y" horiz-adv-x="1145" 
d="M573 729l389 733h183l-487 -895v-567h-170v559l-488 903h186z" />
    <glyph glyph-name="Z" unicode="Z" horiz-adv-x="1172" 
d="M1093 0h-1015v128l787 1182h-760v152h967v-128l-788 -1182h809v-152z" />
    <glyph glyph-name="bracketleft" unicode="[" horiz-adv-x="670" 
d="M619 -324h-453v1786h453v-136h-291v-1512h291v-138z" />
    <glyph glyph-name="backslash" unicode="\" horiz-adv-x="751" 
d="M185 1462l546 -1462h-165l-545 1462h164z" />
    <glyph glyph-name="bracketright" unicode="]" horiz-adv-x="670" 
d="M51 -186h291v1512h-291v136h454v-1786h-454v138z" />
    <glyph glyph-name="asciicircum" unicode="^" horiz-adv-x="1171" 
d="M80 549l439 924h96l477 -924h-149l-374 746l-340 -746h-149z" />
    <glyph glyph-name="underscore" unicode="_" horiz-adv-x="897" 
d="M901 -307h-905v123h905v-123z" />
    <glyph glyph-name="grave" unicode="`" horiz-adv-x="568" 
d="M280 1569q24 -46 59.5 -102.5t75 -110t72.5 -91.5v-24h-113q-36 29 -78.5 69t-84.5 84.5t-76 85t-53 69.5v20h198z" />
    <glyph glyph-name="a" unicode="a" horiz-adv-x="1138" 
d="M585 1114q196 0 291 -88t95 -281v-745h-121l-32 162h-8q-46 -60 -96 -100.5t-115.5 -61t-160.5 -20.5q-100 0 -177.5 35t-122 106t-44.5 180q0 164 130 252t396 96l189 8v67q0 142 -61 199t-172 57q-86 0 -164 -25t-148 -59l-51 126q74 38 170 65t202 27zM807 540
l-167 -7q-205 -8 -289 -67t-84 -167q0 -94 57 -139t151 -45q146 0 239 81t93 243v101z" />
    <glyph glyph-name="b" unicode="b" horiz-adv-x="1253" 
d="M341 1556v-389q0 -67 -3.5 -130t-5.5 -98h9q45 74 130 125t217 51q206 0 328.5 -142.5t122.5 -423.5q0 -185 -56 -312t-158 -192t-241 -65q-130 0 -213.5 48.5t-128.5 118.5h-13l-34 -147h-120v1556h166zM661 976q-119 0 -189 -46.5t-100.5 -140t-30.5 -236.5v-9
q0 -207 69 -316.5t251 -109.5q153 0 229.5 112t76.5 320q0 212 -75.5 319t-230.5 107z" />
    <glyph glyph-name="c" unicode="c" horiz-adv-x="981" 
d="M614 -20q-148 0 -261 61t-176 186t-63 315q0 199 66.5 325.5t183.5 187.5t266 61q82 0 158.5 -16.5t125.5 -41.5l-50 -139q-50 20 -115.5 36t-122.5 16q-114 0 -189.5 -49t-113 -144t-37.5 -234q0 -133 36.5 -227t109 -143.5t181.5 -49.5q87 0 157 18.5t127 43.5v-148
q-55 -28 -122.5 -43t-160.5 -15z" />
    <glyph glyph-name="d" unicode="d" horiz-adv-x="1253" 
d="M565 -20q-208 0 -329.5 142t-121.5 422q0 283 124 427.5t330 144.5q87 0 152 -23t112 -61.5t79 -87.5h12q-4 31 -8 85t-4 88v439h166v-1556h-134l-25 156h-7q-31 -49 -78.5 -89t-113 -63.5t-154.5 -23.5zM591 118q176 0 249 100t73 297v30q0 209 -69.5 321t-252.5 112
q-153 0 -229 -117.5t-76 -320.5q0 -202 75.5 -312t229.5 -110z" />
    <glyph glyph-name="e" unicode="e" horiz-adv-x="1150" 
d="M597 1116q140 0 240 -62t153 -173.5t53 -260.5v-103h-757q3 -193 96 -294t262 -101q104 0 184 19t166 56v-146q-83 -37 -164.5 -54t-192.5 -17q-158 0 -275.5 64.5t-182.5 189.5t-65 306q0 177 59.5 306.5t168 199.5t255.5 70zM595 980q-133 0 -212 -87t-94 -243h580
q-1 98 -30.5 172.5t-89.5 116t-154 41.5z" />
    <glyph glyph-name="f" unicode="f" horiz-adv-x="689" 
d="M663 966h-273v-966h-166v966h-194v80l194 55v73q0 138 41 224.5t119 127.5t190 41q63 0 115.5 -11t92.5 -25l-43 -131q-34 11 -76.5 20.5t-86.5 9.5q-95 0 -140.5 -61.5t-45.5 -192.5v-80h273v-130z" />
    <glyph glyph-name="g" unicode="g" horiz-adv-x="1112" 
d="M481 -492q-216 0 -333 80.5t-117 225.5q0 103 65.5 176t181.5 97q-43 20 -73.5 60t-30.5 92q0 60 33.5 105.5t102.5 87.5q-86 35 -139.5 118.5t-53.5 194.5q0 118 49 201.5t142 127.5t225 44q29 0 58.5 -2.5t56.5 -7t47 -10.5h376v-107l-202 -25q30 -39 50 -94t20 -122
q0 -164 -111 -260.5t-305 -96.5q-46 0 -94 8q-49 -27 -74.5 -60t-25.5 -76q0 -32 19.5 -51t56.5 -27.5t89 -8.5h193q179 0 274.5 -75t95.5 -219q0 -182 -148 -279t-428 -97zM486 -362q136 0 225.5 27.5t134 79t44.5 122.5q0 66 -30 99.5t-88 45t-142 11.5h-190
q-74 0 -129 -23t-84.5 -68t-29.5 -112q0 -89 75 -135.5t214 -46.5zM529 514q119 0 179 60t60 175q0 123 -61 184.5t-180 61.5q-114 0 -175.5 -63.5t-61.5 -185.5q0 -112 62 -172t177 -60z" />
    <glyph glyph-name="h" unicode="h" horiz-adv-x="1256" 
d="M341 1556v-465q0 -40 -2 -80.5t-7 -74.5h11q34 58 86.5 97.5t119.5 60t142 20.5q132 0 220.5 -42t133 -130t44.5 -228v-714h-164v703q0 137 -62.5 205t-191.5 68q-122 0 -194.5 -46.5t-104 -136.5t-31.5 -220v-573h-166v1556h166z" />
    <glyph glyph-name="i" unicode="i" horiz-adv-x="517" 
d="M341 1096v-1096h-166v1096h166zM260 1506q41 0 70.5 -26.5t29.5 -82.5q0 -55 -29.5 -82t-70.5 -27q-43 0 -71.5 27t-28.5 82q0 56 28.5 82.5t71.5 26.5z" />
    <glyph glyph-name="j" unicode="j" horiz-adv-x="517" 
d="M43 -492q-51 0 -89 7.5t-66 17.5v135q31 -10 63 -15.5t72 -5.5q68 0 110 38t42 138v1273h166v-1269q0 -100 -32 -171.5t-98 -109.5t-168 -38zM160 1397q0 56 28.5 82.5t71.5 26.5q41 0 70.5 -26.5t29.5 -82.5q0 -55 -29.5 -82t-70.5 -27q-43 0 -71.5 27t-28.5 82z" />
    <glyph glyph-name="k" unicode="k" horiz-adv-x="1076" 
d="M340 1556v-808q0 -40 -3 -97.5t-5 -101.5h7q21 26 61.5 77t68.5 82l364 388h195l-441 -468l473 -628h-200l-387 519l-133 -122v-397h-165v1556h165z" />
    <glyph glyph-name="l" unicode="l" horiz-adv-x="517" 
d="M342 0h-167v1556h167v-1556z" />
    <glyph glyph-name="m" unicode="m" horiz-adv-x="1896" 
d="M1365 1116q181 0 273 -94.5t92 -303.5v-718h-164v710q0 133 -57.5 199.5t-170.5 66.5q-159 0 -231 -92t-72 -271v-613h-165v710q0 89 -25.5 148t-76 88.5t-127.5 29.5q-109 0 -175 -45t-95.5 -133.5t-29.5 -217.5v-580h-166v1096h134l25 -155h9q33 57 83 96t112 59
t132 20q125 0 209.5 -46.5t122.5 -141.5h9q54 95 148 141.5t206 46.5z" />
    <glyph glyph-name="n" unicode="n" horiz-adv-x="1256" 
d="M694 1116q195 0 295 -95.5t100 -306.5v-714h-164v703q0 137 -62.5 205t-191.5 68q-182 0 -256 -103t-74 -299v-574h-166v1096h134l25 -158h9q35 58 89 97.5t121 60t141 20.5z" />
    <glyph glyph-name="o" unicode="o" horiz-adv-x="1232" 
d="M1120 550q0 -135 -35 -241t-101 -179t-159.5 -111.5t-211.5 -38.5q-110 0 -201.5 38.5t-158 111.5t-103 179t-36.5 241q0 180 61 306.5t174.5 193t270.5 66.5q150 0 262.5 -67t175 -193.5t62.5 -305.5zM286 550q0 -132 35 -229t108 -150t188 -53q114 0 187.5 53
t108.5 150t35 229q0 131 -35 226.5t-108 147.5t-189 52q-171 0 -250.5 -113t-79.5 -313z" />
    <glyph glyph-name="p" unicode="p" horiz-adv-x="1253" 
d="M690 1116q205 0 327 -141t122 -424q0 -187 -56 -314t-157.5 -192t-239.5 -65q-87 0 -153 23t-113 62t-78 85h-12q3 -39 7.5 -94t4.5 -96v-450h-167v1586h137l22 -162h8q32 50 78 91.5t112.5 66t157.5 24.5zM661 976q-114 0 -183.5 -44t-101.5 -131.5t-34 -219.5v-32
q0 -139 30.5 -235t101 -146t189.5 -50q102 0 170 55t101.5 153.5t33.5 226.5q0 194 -75.5 308.5t-231.5 114.5z" />
    <glyph glyph-name="q" unicode="q" horiz-adv-x="1253" 
d="M910 -490v470q0 39 2 90t7 88h-11q-46 -76 -131 -127t-219 -51q-201 0 -323 142t-122 424q0 185 56 312t158.5 192.5t239.5 65.5q131 0 214 -51.5t130 -125.5h8l25 157h132v-1586h-166zM589 118q116 0 186 43.5t102.5 131.5t34.5 219v35q0 212 -72 321.5t-251 109.5
q-154 0 -229 -117.5t-75 -318.5t75 -312.5t229 -111.5z" />
    <glyph glyph-name="r" unicode="r" horiz-adv-x="837" 
d="M673 1116q33 0 69 -3.5t64 -9.5l-21 -154q-27 7 -60 11t-62 4q-66 0 -124.5 -26.5t-102.5 -76t-69 -119t-25 -154.5v-588h-167v1096h138l18 -202h7q34 61 82 111.5t111.5 80.5t141.5 30z" />
    <glyph glyph-name="s" unicode="s" horiz-adv-x="976" 
d="M884 300q0 -105 -52.5 -176.5t-150 -107.5t-232.5 -36q-115 0 -199 18t-147 51v153q67 -33 160 -60t190 -27q142 0 206 46t64 125q0 45 -25.5 79.5t-85.5 67t-166 71.5q-105 40 -181.5 79.5t-118 96.5t-41.5 148q0 139 112.5 213.5t295.5 74.5q99 0 185.5 -19.5
t161.5 -52.5l-56 -133q-68 29 -145 49t-157 20q-115 0 -176.5 -38t-61.5 -104q0 -51 28.5 -84t91.5 -62t166 -68q103 -38 178 -78.5t115.5 -98t40.5 -147.5z" />
    <glyph glyph-name="t" unicode="t" horiz-adv-x="730" 
d="M529 116q41 0 84 7t70 17v-129q-29 -13 -80.5 -22t-100.5 -9q-87 0 -158 30.5t-113.5 103.5t-42.5 202v650h-156v81l157 65l66 238h100v-254h321v-130h-321v-645q0 -103 47.5 -154t126.5 -51z" />
    <glyph glyph-name="u" unicode="u" horiz-adv-x="1256" 
d="M1080 1096v-1096h-136l-24 154h-9q-34 -57 -88 -96t-121.5 -58.5t-143.5 -19.5q-130 0 -218 42t-132.5 130t-44.5 226v718h168v-706q0 -137 62 -204.5t189 -67.5q122 0 194.5 46t104.5 135.5t32 219.5v577h167z" />
    <glyph glyph-name="v" unicode="v" horiz-adv-x="1023" 
d="M416 0l-416 1096h178l241 -663q25 -68 51 -150t36 -132h7q12 50 40 132.5t51 149.5l241 663h178l-417 -1096h-190z" />
    <glyph glyph-name="w" unicode="w" horiz-adv-x="1587" 
d="M1067 2l-195 638q-13 41 -24.5 80.5t-21 76t-17 68t-12.5 54.5h-7q-4 -23 -11 -54.5t-16.5 -68.5t-20.5 -77.5t-25 -81.5l-204 -635h-187l-302 1096h172l158 -605q16 -60 30.5 -118.5t25 -110t15.5 -89.5h8q6 25 13.5 60t17 74.5t20.5 79t22 74.5l202 635h179l195 -634
q15 -48 29.5 -100t26.5 -100.5t17 -86.5h8q4 34 15 84t25.5 110t30.5 122l160 605h169l-303 -1096h-193z" />
    <glyph glyph-name="x" unicode="x" horiz-adv-x="1072" 
d="M436 561l-379 535h190l289 -422l288 422h188l-379 -535l400 -561h-190l-307 447l-309 -447h-188z" />
    <glyph glyph-name="y" unicode="y" horiz-adv-x="1026" 
d="M2 1096h178l242 -636q21 -56 39 -107.5t32 -98.5t22 -91h7q14 50 40 131.5t56 166.5l229 635h179l-477 -1257q-38 -101 -88.5 -176t-122.5 -115.5t-174 -40.5q-47 0 -83 5.5t-62 12.5v133q22 -5 53.5 -9t65.5 -4q62 0 107.5 23.5t78.5 68.5t57 107l60 154z" />
    <glyph glyph-name="z" unicode="z" horiz-adv-x="960" 
d="M879 0h-799v110l601 856h-563v130h748v-123l-593 -844h606v-129z" />
    <glyph glyph-name="braceleft" unicode="{" horiz-adv-x="768" 
d="M702 -324q-124 1 -213.5 36.5t-137 106.5t-47.5 178v306q0 71 -28 114.5t-83 63.5t-136 20v138q81 1 136 20.5t83 62.5t28 114v308q0 107 50 177.5t139.5 105.5t208.5 35v-136q-74 -2 -126.5 -23t-80 -64t-27.5 -111v-301q0 -104 -53 -167t-163 -83v-12q112 -19 164 -82
t52 -168v-307q0 -68 27 -110.5t79.5 -62.5t127.5 -21v-138z" />
    <glyph glyph-name="bar" unicode="|" horiz-adv-x="1125" 
d="M492 1557h139v-2053h-139v2053z" />
    <glyph glyph-name="braceright" unicode="}" horiz-adv-x="768" 
d="M67 -324v138q74 2 126 22.5t79.5 63t27.5 110.5v303q0 105 53.5 168t162.5 82v12q-111 20 -163.5 83t-52.5 167v304q0 69 -27 112t-79 63.5t-127 21.5v136q124 -1 213 -36t136.5 -105.5t47.5 -178.5v-304q0 -72 28 -115.5t83.5 -63.5t136.5 -20v-138q-81 0 -136.5 -20
t-83.5 -63t-28 -113v-310q0 -106 -50 -177t-139 -106.5t-208 -35.5z" />
    <glyph glyph-name="asciitilde" unicode="~" horiz-adv-x="1171" 
d="M554 658q-71 32 -120 44.5t-96 12.5q-57 0 -120.5 -34t-114.5 -86v149q50 53 111.5 80t134.5 27q62 0 120.5 -13.5t146.5 -51.5q73 -31 121 -44t93 -13q59 0 122 34t113 86v-147q-48 -52 -109 -80.5t-135 -28.5q-60 0 -119 13t-148 52z" />
    <glyph glyph-name="uni00A0" unicode="&#xa0;" horiz-adv-x="532" 
 />
    <glyph glyph-name="exclamdown" unicode="&#xa1;" horiz-adv-x="541" 
d="M212 681h111l46 -1055h-203zM388 985q0 -70 -34.5 -99.5t-84.5 -29.5t-84.5 29.5t-34.5 99.5q0 68 34.5 99.5t84.5 31.5t84.5 -31.5t34.5 -99.5z" />
    <glyph glyph-name="cent" unicode="&#xa2;" horiz-adv-x="1171" 
d="M720 1483v-165q77 -3 147.5 -19t121.5 -39l-48 -139q-55 21 -121.5 36.5t-122.5 15.5q-115 0 -191 -48t-113.5 -143.5t-37.5 -238.5q0 -142 37 -234.5t110.5 -138t183.5 -45.5q88 0 156 17t130 43v-145q-55 -27 -114.5 -43t-139.5 -18v-199h-128v204q-125 18 -216 80.5
t-140 179.5t-49 297q0 183 50 302.5t141 184t214 82.5v173h130z" />
    <glyph glyph-name="sterling" unicode="&#xa3;" horiz-adv-x="1171" 
d="M686 1481q111 0 199 -23.5t158 -57.5l-60 -134q-61 29 -135.5 52.5t-157.5 23.5q-121 0 -184 -64t-63 -206v-287h416v-127h-416v-222q0 -84 -20 -139.5t-52.5 -89t-70.5 -55.5h792v-152h-1024v141q61 14 108 48t73.5 94t26.5 151v224h-199v127h199v305q0 124 50.5 211
t142.5 133.5t217 46.5z" />
    <glyph glyph-name="currency" unicode="&#xa4;" horiz-adv-x="1171" 
d="M183 723q0 63 20.5 122.5t54.5 108.5l-137 141l92 90l138 -134q49 35 109 54.5t126 19.5q64 0 122 -19.5t108 -54.5l139 134l92 -90l-135 -140q33 -48 54.5 -107.5t21.5 -124.5q0 -64 -19.5 -124.5t-56.5 -109.5l133 -138l-90 -89l-139 134q-48 -34 -107 -53.5
t-123 -19.5q-66 0 -127 19.5t-108 55.5l-138 -135l-91 89l136 139q-34 49 -54.5 108.5t-20.5 123.5zM311 723q0 -77 36.5 -139.5t99 -99t138.5 -36.5q78 0 141 37t100 99.5t37 138.5q0 78 -37 141t-100 100.5t-140 37.5t-139.5 -37.5t-99 -100.5t-36.5 -141z" />
    <glyph glyph-name="yen" unicode="&#xa5;" horiz-adv-x="1171" 
d="M584 741l377 721h175l-420 -771h264v-123h-315v-174h315v-123h-315v-271h-162v271h-316v123h316v174h-316v123h260l-416 771h177z" />
    <glyph glyph-name="brokenbar" unicode="&#xa6;" horiz-adv-x="1125" 
d="M492 1557h139v-777h-139v777zM492 282h139v-778h-139v778z" />
    <glyph glyph-name="section" unicode="&#xa7;" horiz-adv-x="1052" 
d="M140 809q0 101 51 164t118 94q-76 39 -119 94.5t-43 140.5q0 122 103.5 193t295.5 71q113 0 192 -19.5t154 -49.5l-51 -128q-69 28 -139.5 47.5t-166.5 19.5q-125 0 -179 -34t-54 -96q0 -41 26 -72t86.5 -60t161.5 -66q104 -37 179 -80.5t115.5 -101.5t40.5 -142
q0 -104 -47.5 -171t-109.5 -102q73 -37 113.5 -91.5t40.5 -134.5q0 -139 -115.5 -216.5t-324.5 -77.5q-113 0 -197.5 18t-148.5 49v144q45 -21 103 -40.5t122 -31.5t128 -12q155 0 214.5 46t59.5 108q0 42 -22 73t-80.5 61.5t-167.5 70.5q-105 39 -181 81t-117 101.5
t-41 149.5zM283 827q0 -53 29 -93t93.5 -74.5t170.5 -74.5l54 -19q52 29 94.5 76.5t42.5 117.5q0 54 -29.5 96t-100.5 79t-196 75q-62 -16 -110 -64t-48 -119z" />
    <glyph glyph-name="dieresis" unicode="&#xa8;" horiz-adv-x="1187" 
d="M310 1394q0 50 26 73t64 23q39 0 65.5 -23t26.5 -73q0 -49 -26.5 -73.5t-65.5 -24.5q-38 0 -64 24.5t-26 73.5zM694 1394q0 50 26 73t63 23q38 0 65 -23t27 -73q0 -49 -27 -73.5t-65 -24.5q-37 0 -63 24.5t-26 73.5z" />
    <glyph glyph-name="copyright" unicode="&#xa9;" horiz-adv-x="1704" 
d="M852 -20q-163 0 -300.5 56t-239 157t-157 238.5t-55.5 299.5q0 163 56 300.5t157.5 238.5t239 157t299.5 56q157 0 293.5 -56.5t239.5 -158t161 -238.5t58 -299t-56 -299.5t-157.5 -238.5t-239 -157t-299.5 -56zM884 274q-202 0 -304 124.5t-102 332.5q0 133 48.5 235.5
t141 161t224.5 58.5q66 0 131 -16t122 -45l-56 -116q-50 26 -99 39.5t-96 13.5q-127 0 -197 -88.5t-70 -242.5q0 -160 63.5 -246t200.5 -86q50 0 107.5 13t109.5 34v-122q-49 -22 -101 -36t-123 -14zM852 82q133 0 249.5 48t204.5 135.5t138 206t50 259.5q0 134 -47.5 251
t-133.5 207t-203.5 140.5t-257.5 50.5t-257.5 -48t-204 -135.5t-134 -206t-47.5 -259.5q0 -134 47 -251.5t133.5 -207t204 -140t258.5 -50.5z" />
    <glyph glyph-name="ordfeminine" unicode="&#xaa;" horiz-adv-x="723" 
d="M360 1479q130 0 196 -55t66 -174v-450h-91l-23 87q-39 -43 -96 -71.5t-134 -28.5q-64 0 -111.5 22t-73 67t-25.5 112q0 68 35 114t107 71t181 29l112 4v47q0 69 -42.5 97t-104.5 28q-55 0 -106.5 -14.5t-97.5 -38.5l-43 95q52 26 117 42.5t134 16.5zM503 1118l-98 -4
q-124 -4 -169 -36t-45 -90q0 -53 31 -77.5t84 -24.5q104 0 150.5 49.5t46.5 132.5v50z" />
    <glyph glyph-name="guillemotleft" unicode="&#xab;" horiz-adv-x="1015" 
d="M79 556l340 409l119 -68l-287 -353l287 -353l-119 -69l-340 407v27zM477 556l345 409l117 -68l-286 -353l286 -353l-117 -69l-345 407v27z" />
    <glyph glyph-name="logicalnot" unicode="&#xac;" horiz-adv-x="1171" 
d="M1060 790v-527h-134v391h-823v136h957z" />
    <glyph glyph-name="uni00AD" unicode="&#xad;" horiz-adv-x="659" 
d="M82 476v148h496v-148h-496z" />
    <glyph glyph-name="registered" unicode="&#xae;" horiz-adv-x="1704" 
d="M575 284v893h261q163 0 241 -65.5t78 -197.5q0 -97 -49.5 -153.5t-113.5 -81.5l237 -395h-164l-207 356h-138v-356h-145zM720 758h111q83 0 130.5 41t47.5 111q0 77 -44 111t-136 34h-109v-297zM852 -20q-163 0 -300.5 56t-239 157t-157 238.5t-55.5 299.5
q0 163 56 300.5t157.5 238.5t239 157t299.5 56q157 0 293.5 -56.5t239.5 -158t161 -238.5t58 -299t-56 -299.5t-157.5 -238.5t-239 -157t-299.5 -56zM852 82q133 0 249.5 48t204.5 135.5t138 206t50 259.5q0 134 -47.5 251t-133.5 207t-203.5 140.5t-257.5 50.5t-257.5 -48
t-204 -135.5t-134 -206t-47.5 -259.5q0 -134 47 -251.5t133.5 -207t204 -140t258.5 -50.5z" />
    <glyph glyph-name="overscore" unicode="&#xaf;" horiz-adv-x="1024" 
d="M1030 1556h-1036v127h1036v-127z" />
    <glyph glyph-name="degree" unicode="&#xb0;" horiz-adv-x="877" 
d="M438 859q-96 0 -168 39t-112.5 109.5t-40.5 162.5q0 93 39.5 163.5t111.5 110t170 39.5q95 0 167.5 -39.5t113.5 -110t41 -163.5q0 -92 -41 -162.5t-113.5 -109.5t-167.5 -39zM440 973q98 0 147 54.5t49 142.5q0 92 -50.5 146.5t-145.5 54.5q-101 0 -150 -54.5
t-49 -146.5q0 -88 48.5 -142.5t150.5 -54.5z" />
    <glyph glyph-name="plusminus" unicode="&#xb1;" horiz-adv-x="1171" 
d="M103 0v135h963v-135h-963zM652 795h412v-136h-412v-424h-137v424h-412v136h412v426h137v-426z" />
    <glyph glyph-name="uni00B2" unicode="&#xb2;" horiz-adv-x="712" 
d="M627 852h-577v104l237 232q82 80 126 131t60.5 92t16.5 88q0 66 -39 101.5t-105 35.5q-61 0 -112.5 -23.5t-104.5 -64.5l-67 89q60 50 130 80t156 30q130 0 204 -64.5t74 -176.5q0 -68 -27.5 -125t-81 -115t-130.5 -131l-170 -164h410v-119z" />
    <glyph glyph-name="uni00B3" unicode="&#xb3;" horiz-adv-x="712" 
d="M339 1747q143 0 216 -63t73 -161q0 -84 -44.5 -137t-106.5 -72v-6q81 -16 128.5 -68.5t47.5 -135.5q0 -119 -85.5 -193t-263.5 -74q-75 0 -140.5 13t-126.5 43v121q68 -32 137 -50t131 -18q108 0 159.5 43.5t51.5 118.5q0 76 -59.5 110.5t-167.5 34.5h-119v106h119
q104 0 152.5 41t48.5 108q0 65 -42.5 97t-106.5 32t-119.5 -21.5t-110.5 -56.5l-68 89q62 45 132 72t164 27z" />
    <glyph glyph-name="acute" unicode="&#xb4;" horiz-adv-x="568" 
d="M487 1569v-20q-20 -29 -54.5 -69.5t-76.5 -85t-84.5 -84.5t-78.5 -69h-111v24q32 38 70 91.5t74 110t60 102.5h201z" />
    <glyph glyph-name="uni00B5" unicode="&#xb5;" horiz-adv-x="1266" 
d="M1091 1096v-1096h-135l-26 152h-9q-34 -54 -81 -92.5t-109.5 -59t-143.5 -20.5q-86 0 -146.5 27t-100.5 73h-8q3 -24 5 -59.5t3 -80t1 -97.5v-335h-166v1588h166v-708q0 -133 64 -201.5t193 -68.5q124 0 195 46.5t101.5 136t30.5 218.5v577h166z" />
    <glyph glyph-name="paragraph" unicode="&#xb6;" horiz-adv-x="1341" 
d="M1117 -260h-111v1709h-216v-1709h-112v837q-31 -9 -70 -13.5t-76 -4.5q-125 0 -217 48.5t-142.5 157t-50.5 288.5q0 189 55 299t154 157t232 47h554v-1816z" />
    <glyph glyph-name="periodcentered" unicode="&#xb7;" horiz-adv-x="538" 
d="M150 714q0 70 34 99.5t83 29.5q51 0 86 -29.5t35 -99.5q0 -69 -35 -100.5t-86 -31.5q-49 0 -83 31.5t-34 100.5z" />
    <glyph glyph-name="cedilla" unicode="&#xb8;" horiz-adv-x="454" 
d="M427 -286q0 -97 -75 -151.5t-220 -54.5q-31 0 -59 3.5t-45 7.5v105q19 -4 49 -7t60 -3q75 0 115 22t40 74q0 55 -53.5 80t-136.5 34l89 176h111l-54 -112q50 -10 90.5 -31t64.5 -56t24 -87z" />
    <glyph glyph-name="uni00B9" unicode="&#xb9;" horiz-adv-x="712" 
d="M481 1729v-877h-135v566q0 36 1 67.5t2.5 62t3.5 59.5q-21 -19 -47 -40t-55 -40l-109 -77l-66 94l267 185h138z" />
    <glyph glyph-name="ordmasculine" unicode="&#xba;" horiz-adv-x="765" 
d="M701 1135q0 -164 -86.5 -256t-233.5 -92q-139 0 -226.5 89.5t-87.5 258.5q0 166 85 255.5t233 89.5q97 0 167.5 -40.5t109.5 -117.5t39 -187zM188 1135q0 -121 46 -183.5t148 -62.5t148.5 62.5t46.5 183.5q0 120 -46 181t-148 61q-101 0 -148 -60t-47 -182z" />
    <glyph glyph-name="guillemotright" unicode="&#xbb;" horiz-adv-x="1015" 
d="M937 530l-345 -408l-116 69l286 354l-286 352l116 68l345 -408v-27zM536 530l-342 -408l-117 69l286 354l-286 352l117 68l342 -408v-27z" />
    <glyph glyph-name="onequarter" unicode="&#xbc;" horiz-adv-x="1516" 
d="M263 0l878 1462h144l-879 -1462h-143zM336 586v566q0 36 1 67.5t2.5 62t3.5 59.5q-21 -19 -47 -40t-55 -41l-109 -76l-66 94l267 184h137v-876h-134zM1227 0v205h-402v98l405 580h139v-564h128v-114h-128v-205h-142zM960 319h267v207q0 44 1 99t4 104q-11 -25 -41.5 -72
t-53.5 -81z" />
    <glyph glyph-name="onehalf" unicode="&#xbd;" horiz-adv-x="1573" 
d="M208 0l879 1462h143l-879 -1462h-143zM313 586v566q0 27 0.5 51.5t2 47.5t3 45.5t2.5 44.5q-22 -19 -47.5 -40t-54.5 -41l-109 -76l-66 94l267 184h138v-876h-136zM911 0v104l237 232q82 80 126 131t61 92t17 88q0 66 -40 101.5t-105 35.5q-62 0 -113 -23.5t-104 -64.5
l-66 89q59 50 129.5 80t155.5 30q130 0 204 -64.5t74 -176.5q0 -68 -28 -125t-81 -115t-130 -131l-170 -164h410v-119h-577z" />
    <glyph glyph-name="threequarters" unicode="&#xbe;" horiz-adv-x="1594" 
d="M356 0l879 1462h143l-878 -1462h-144zM300 570q-74 0 -140 13.5t-127 43.5v121q68 -33 137.5 -50.5t131.5 -17.5q108 0 159.5 43t51.5 119t-60 110.5t-168 34.5h-119v106h119q104 0 152.5 41t48.5 108q0 65 -42.5 97t-106.5 32t-119 -21.5t-111 -56.5l-68 88
q62 46 132.5 73t164.5 27q142 0 215 -63.5t73 -161.5q0 -83 -44 -136t-106 -72v-7q80 -16 128 -68t48 -135q0 -119 -86 -193.5t-264 -74.5zM1306 0v205h-402v98l405 580h139v-564h128v-114h-128v-205h-142zM1040 319h266v207q0 44 1.5 99t4.5 104q-13 -25 -43 -72t-53 -81z
" />
    <glyph glyph-name="questiondown" unicode="&#xbf;" horiz-adv-x="884" 
d="M593 684v-52q0 -79 -15 -137t-52.5 -108t-104.5 -106q-78 -65 -124 -110.5t-65.5 -91.5t-19.5 -111q0 -104 67.5 -159.5t188.5 -55.5q99 0 176 25.5t148 59.5l58 -134q-82 -43 -177.5 -70t-214.5 -27q-193 0 -299 95.5t-106 262.5q0 93 30 158.5t85.5 120t129.5 115.5
q67 56 101.5 98.5t47.5 87t13 106.5v33h133zM637 986q0 -70 -32.5 -99.5t-85.5 -29.5q-49 0 -83.5 29.5t-34.5 99.5q0 69 34.5 100.5t83.5 31.5q53 0 85.5 -31.5t32.5 -100.5z" />
    <glyph glyph-name="Agrave" unicode="&#xc0;" horiz-adv-x="1295" 
d="M1117 0l-180 464h-586l-179 -464h-172l572 1468h153l568 -1468h-176zM886 615l-171 461q-6 18 -19.5 59t-27.5 85t-23 71q-10 -41 -21.5 -81.5t-22.5 -75t-19 -58.5l-174 -461h478zM577 1936q24 -46 59.5 -102.5t75 -110t72.5 -91.5v-24h-113q-36 29 -78.5 69t-84.5 84.5
t-76 85t-53 69.5v20h198z" />
    <glyph glyph-name="Aacute" unicode="&#xc1;" horiz-adv-x="1295" 
d="M1117 0l-180 464h-586l-179 -464h-172l572 1468h153l568 -1468h-176zM886 615l-171 461q-6 18 -19.5 59t-27.5 85t-23 71q-10 -41 -21.5 -81.5t-22.5 -75t-19 -58.5l-174 -461h478zM935 1936v-20q-20 -29 -54.5 -69.5t-76.5 -85t-84.5 -84.5t-78.5 -69h-111v24
q32 38 70 91.5t74 110t60 102.5h201z" />
    <glyph glyph-name="Acircumflex" unicode="&#xc2;" horiz-adv-x="1295" 
d="M1117 0l-180 464h-586l-179 -464h-172l572 1468h153l568 -1468h-176zM886 615l-171 461q-6 18 -19.5 59t-27.5 85t-23 71q-10 -41 -21.5 -81.5t-22.5 -75t-19 -58.5l-174 -461h478zM732 1935q25 -45 70 -101.5t95 -110.5t89 -93v-22h-118q-54 35 -111 86t-111 106
q-54 -55 -109.5 -105.5t-109.5 -86.5h-114v22q38 40 86.5 94t93 110t70.5 101h169z" />
    <glyph glyph-name="Atilde" unicode="&#xc3;" horiz-adv-x="1295" 
d="M1117 0l-180 464h-586l-179 -464h-172l572 1468h153l568 -1468h-176zM886 615l-171 461q-6 18 -19.5 59t-27.5 85t-23 71q-10 -41 -21.5 -81.5t-22.5 -75t-19 -58.5l-174 -461h478zM269 1611q6 60 23 107t45 80t66.5 50.5t85.5 17.5q46 0 88 -18.5t80 -42t73.5 -42
t68.5 -18.5q48 0 74.5 29.5t40.5 93.5h98q-13 -117 -69 -186.5t-151 -69.5q-44 0 -85 18.5t-79 42t-74.5 42t-71.5 18.5q-49 0 -75 -29.5t-40 -92.5h-98z" />
    <glyph glyph-name="Adieresis" unicode="&#xc4;" horiz-adv-x="1295" 
d="M1117 0l-180 464h-586l-179 -464h-172l572 1468h153l568 -1468h-176zM886 615l-171 461q-6 18 -19.5 59t-27.5 85t-23 71q-10 -41 -21.5 -81.5t-22.5 -75t-19 -58.5l-174 -461h478zM362 1761q0 50 26 73t64 23q39 0 65.5 -23t26.5 -73q0 -49 -26.5 -73.5t-65.5 -24.5
q-38 0 -64 24.5t-26 73.5zM746 1761q0 50 26 73t63 23q38 0 65 -23t27 -73q0 -49 -27 -73.5t-65 -24.5q-37 0 -63 24.5t-26 73.5z" />
    <glyph glyph-name="Aring" unicode="&#xc5;" horiz-adv-x="1295" 
d="M1117 0l-180 464h-586l-179 -464h-172l572 1468h153l568 -1468h-176zM886 615l-171 461q-6 18 -19.5 59t-27.5 85t-23 71q-10 -41 -21.5 -81.5t-22.5 -75t-19 -58.5l-174 -461h478zM643 1372q-97 0 -159 57t-62 159q0 100 61.5 157t159.5 57q95 0 160 -57t65 -155
q0 -103 -64 -160.5t-161 -57.5zM643 1468q53 0 86.5 32.5t33.5 87.5t-34.5 87t-85.5 32q-50 0 -84.5 -32t-34.5 -87t31 -87.5t88 -32.5z" />
    <glyph glyph-name="AE" unicode="&#xc6;" horiz-adv-x="1778" 
d="M1665 0h-764v464h-505l-222 -464h-176l687 1462h980v-150h-594v-473h555v-148h-555v-541h594v-150zM462 615h439v695h-115z" />
    <glyph glyph-name="Ccedilla" unicode="&#xc7;" horiz-adv-x="1290" 
d="M825 1333q-121 0 -217.5 -41.5t-164 -120t-103.5 -189.5t-36 -250q0 -184 57.5 -319.5t172 -209.5t286.5 -74q98 0 184.5 16.5t168.5 41.5v-148q-80 -30 -168 -44.5t-209 -14.5q-223 0 -372.5 92.5t-224 261.5t-74.5 399q0 166 46.5 303.5t136 237.5t220 154.5
t299.5 54.5q111 0 214 -22t186 -63l-68 -144q-70 32 -153.5 55.5t-180.5 23.5zM961 -286q0 -97 -75 -151.5t-220 -54.5q-31 0 -59 3.5t-45 7.5v105q19 -4 49 -7t60 -3q75 0 115 22t40 74q0 55 -53.5 80t-136.5 34l89 176h111l-54 -112q50 -10 90.5 -31t64.5 -56t24 -87z" />
    <glyph glyph-name="Egrave" unicode="&#xc8;" horiz-adv-x="1138" 
d="M1014 0h-814v1462h814v-150h-644v-473h607v-148h-607v-541h644v-150zM557 1936q24 -46 59.5 -102.5t75 -110t72.5 -91.5v-24h-113q-36 29 -78.5 69t-84.5 84.5t-76 85t-53 69.5v20h198z" />
    <glyph glyph-name="Eacute" unicode="&#xc9;" horiz-adv-x="1138" 
d="M1014 0h-814v1462h814v-150h-644v-473h607v-148h-607v-541h644v-150zM916 1936v-20q-20 -29 -54.5 -69.5t-76.5 -85t-84.5 -84.5t-78.5 -69h-111v24q32 38 70 91.5t74 110t60 102.5h201z" />
    <glyph glyph-name="Ecircumflex" unicode="&#xca;" horiz-adv-x="1138" 
d="M1014 0h-814v1462h814v-150h-644v-473h607v-148h-607v-541h644v-150zM712 1935q25 -45 70 -101.5t95 -110.5t89 -93v-22h-118q-54 35 -111 86t-111 106q-54 -55 -109.5 -105.5t-109.5 -86.5h-114v22q38 40 86.5 94t93 110t70.5 101h169z" />
    <glyph glyph-name="Edieresis" unicode="&#xcb;" horiz-adv-x="1138" 
d="M1014 0h-814v1462h814v-150h-644v-473h607v-148h-607v-541h644v-150zM343 1761q0 50 26 73t64 23q39 0 65.5 -23t26.5 -73q0 -49 -26.5 -73.5t-65.5 -24.5q-38 0 -64 24.5t-26 73.5zM727 1761q0 50 26 73t63 23q38 0 65 -23t27 -73q0 -49 -27 -73.5t-65 -24.5
q-37 0 -63 24.5t-26 73.5z" />
    <glyph glyph-name="Igrave" unicode="&#xcc;" horiz-adv-x="572" 
d="M200 0v1462h170v-1462h-170zM186 1936q24 -46 59.5 -102.5t75 -110t72.5 -91.5v-24h-113q-36 29 -78.5 69t-84.5 84.5t-76 85t-53 69.5v20h198z" />
    <glyph glyph-name="Iacute" unicode="&#xcd;" horiz-adv-x="572" 
d="M200 0v1462h170v-1462h-170zM585 1936v-20q-20 -29 -54.5 -69.5t-76.5 -85t-84.5 -84.5t-78.5 -69h-111v24q32 38 70 91.5t74 110t60 102.5h201z" />
    <glyph glyph-name="Icircumflex" unicode="&#xce;" horiz-adv-x="572" 
d="M200 0v1462h170v-1462h-170zM369 1935q25 -45 70 -101.5t95 -110.5t89 -93v-22h-118q-54 35 -111 86t-111 106q-54 -55 -109.5 -105.5t-109.5 -86.5h-114v22q38 40 86.5 94t93 110t70.5 101h169z" />
    <glyph glyph-name="Idieresis" unicode="&#xcf;" horiz-adv-x="572" 
d="M200 0v1462h170v-1462h-170zM6 1761q0 50 26 73t64 23q39 0 65.5 -23t26.5 -73q0 -49 -26.5 -73.5t-65.5 -24.5q-38 0 -64 24.5t-26 73.5zM390 1761q0 50 26 73t63 23q38 0 65 -23t27 -73q0 -49 -27 -73.5t-65 -24.5q-37 0 -63 24.5t-26 73.5z" />
    <glyph glyph-name="Eth" unicode="&#xd0;" horiz-adv-x="1486" 
d="M641 1462q222 0 383.5 -81.5t249 -241t87.5 -394.5q0 -247 -90 -412.5t-261 -249t-415 -83.5h-382v649h-155v149h155v664h428zM615 1317h-233v-519h372v-149h-372v-503h195q303 0 454 149t151 444q0 197 -66 325t-192.5 190.5t-308.5 62.5z" />
    <glyph glyph-name="Ntilde" unicode="&#xd1;" horiz-adv-x="1542" 
d="M1343 0h-196l-797 1228h-8q3 -49 7 -111.5t6.5 -133t2.5 -143.5v-840h-158v1462h195l794 -1224h7q-2 35 -5 99.5t-5.5 139t-2.5 138.5v847h160v-1462zM398 1611q6 60 23 107t45 80t66.5 50.5t85.5 17.5q46 0 88 -18.5t80 -42t73.5 -42t68.5 -18.5q48 0 74.5 29.5
t40.5 93.5h98q-13 -117 -69 -186.5t-151 -69.5q-44 0 -85 18.5t-79 42t-74.5 42t-71.5 18.5q-49 0 -75 -29.5t-40 -92.5h-98z" />
    <glyph glyph-name="Ograve" unicode="&#xd2;" horiz-adv-x="1593" 
d="M1468 733q0 -169 -43 -307.5t-127.5 -238t-209.5 -153.5t-290 -54q-170 0 -296.5 54t-210 154t-125 239t-41.5 308q0 224 74 393t224.5 263t377.5 94q217 0 365.5 -93t225 -261.5t76.5 -397.5zM304 733q0 -186 53 -322t162.5 -210t278.5 -74q170 0 278.5 74t160.5 210
t52 322q0 283 -118.5 442.5t-369.5 159.5q-170 0 -280 -73t-163.5 -207.5t-53.5 -321.5zM730 1936q24 -46 59.5 -102.5t75 -110t72.5 -91.5v-24h-113q-36 29 -78.5 69t-84.5 84.5t-76 85t-53 69.5v20h198z" />
    <glyph glyph-name="Oacute" unicode="&#xd3;" horiz-adv-x="1593" 
d="M1468 733q0 -169 -43 -307.5t-127.5 -238t-209.5 -153.5t-290 -54q-170 0 -296.5 54t-210 154t-125 239t-41.5 308q0 224 74 393t224.5 263t377.5 94q217 0 365.5 -93t225 -261.5t76.5 -397.5zM304 733q0 -186 53 -322t162.5 -210t278.5 -74q170 0 278.5 74t160.5 210
t52 322q0 283 -118.5 442.5t-369.5 159.5q-170 0 -280 -73t-163.5 -207.5t-53.5 -321.5zM1087 1936v-20q-20 -29 -54.5 -69.5t-76.5 -85t-84.5 -84.5t-78.5 -69h-111v24q32 38 70 91.5t74 110t60 102.5h201z" />
    <glyph glyph-name="Ocircumflex" unicode="&#xd4;" horiz-adv-x="1593" 
d="M1468 733q0 -169 -43 -307.5t-127.5 -238t-209.5 -153.5t-290 -54q-170 0 -296.5 54t-210 154t-125 239t-41.5 308q0 224 74 393t224.5 263t377.5 94q217 0 365.5 -93t225 -261.5t76.5 -397.5zM304 733q0 -186 53 -322t162.5 -210t278.5 -74q170 0 278.5 74t160.5 210
t52 322q0 283 -118.5 442.5t-369.5 159.5q-170 0 -280 -73t-163.5 -207.5t-53.5 -321.5zM884 1935q25 -45 70 -101.5t95 -110.5t89 -93v-22h-118q-54 35 -111 86t-111 106q-54 -55 -109.5 -105.5t-109.5 -86.5h-114v22q38 40 86.5 94t93 110t70.5 101h169z" />
    <glyph glyph-name="Otilde" unicode="&#xd5;" horiz-adv-x="1593" 
d="M1468 733q0 -169 -43 -307.5t-127.5 -238t-209.5 -153.5t-290 -54q-170 0 -296.5 54t-210 154t-125 239t-41.5 308q0 224 74 393t224.5 263t377.5 94q217 0 365.5 -93t225 -261.5t76.5 -397.5zM304 733q0 -186 53 -322t162.5 -210t278.5 -74q170 0 278.5 74t160.5 210
t52 322q0 283 -118.5 442.5t-369.5 159.5q-170 0 -280 -73t-163.5 -207.5t-53.5 -321.5zM420 1611q6 60 23 107t45 80t66.5 50.5t85.5 17.5q46 0 88 -18.5t80 -42t73.5 -42t68.5 -18.5q48 0 74.5 29.5t40.5 93.5h98q-13 -117 -69 -186.5t-151 -69.5q-44 0 -85 18.5t-79 42
t-74.5 42t-71.5 18.5q-49 0 -75 -29.5t-40 -92.5h-98z" />
    <glyph glyph-name="Odieresis" unicode="&#xd6;" horiz-adv-x="1593" 
d="M1468 733q0 -169 -43 -307.5t-127.5 -238t-209.5 -153.5t-290 -54q-170 0 -296.5 54t-210 154t-125 239t-41.5 308q0 224 74 393t224.5 263t377.5 94q217 0 365.5 -93t225 -261.5t76.5 -397.5zM304 733q0 -186 53 -322t162.5 -210t278.5 -74q170 0 278.5 74t160.5 210
t52 322q0 283 -118.5 442.5t-369.5 159.5q-170 0 -280 -73t-163.5 -207.5t-53.5 -321.5zM514 1761q0 50 26 73t64 23q39 0 65.5 -23t26.5 -73q0 -49 -26.5 -73.5t-65.5 -24.5q-38 0 -64 24.5t-26 73.5zM898 1761q0 50 26 73t63 23q38 0 65 -23t27 -73q0 -49 -27 -73.5
t-65 -24.5q-37 0 -63 24.5t-26 73.5z" />
    <glyph glyph-name="multiply" unicode="&#xd7;" horiz-adv-x="1171" 
d="M940 1174l94 -97l-354 -354l353 -354l-95 -97l-356 352l-349 -352l-99 97l353 354l-354 352l99 99l352 -356z" />
    <glyph glyph-name="Oslash" unicode="&#xd8;" horiz-adv-x="1593" 
d="M1468 733q0 -169 -43 -307.5t-127.5 -238t-209.5 -153.5t-290 -54q-118 0 -214 25.5t-170 76.5l-102 -144l-116 76l110 156q-91 100 -136 243.5t-45 321.5q0 224 74 393t224.5 263t377.5 94q107 0 200 -25.5t168 -71.5l98 139l115 -79l-106 -148q93 -98 142.5 -241.5
t49.5 -325.5zM1289 733q0 134 -28 242.5t-83 184.5l-673 -948q56 -40 129 -62.5t164 -22.5q170 0 278.5 74t160.5 210t52 322zM304 733q0 -130 26 -235.5t78 -182.5l670 942q-54 38 -123 58t-154 20q-170 0 -280 -73t-163.5 -207.5t-53.5 -321.5z" />
    <glyph glyph-name="Ugrave" unicode="&#xd9;" horiz-adv-x="1493" 
d="M1306 1462v-946q0 -155 -62.5 -276t-188.5 -190.5t-316 -69.5q-271 0 -412.5 147t-141.5 393v942h171v-947q0 -186 98.5 -287t294.5 -101q134 0 219.5 48.5t127 136t41.5 202.5v948h169zM679 1936q24 -46 59.5 -102.5t75 -110t72.5 -91.5v-24h-113q-36 29 -78.5 69
t-84.5 84.5t-76 85t-53 69.5v20h198z" />
    <glyph glyph-name="Uacute" unicode="&#xda;" horiz-adv-x="1493" 
d="M1306 1462v-946q0 -155 -62.5 -276t-188.5 -190.5t-316 -69.5q-271 0 -412.5 147t-141.5 393v942h171v-947q0 -186 98.5 -287t294.5 -101q134 0 219.5 48.5t127 136t41.5 202.5v948h169zM1037 1936v-20q-20 -29 -54.5 -69.5t-76.5 -85t-84.5 -84.5t-78.5 -69h-111v24
q32 38 70 91.5t74 110t60 102.5h201z" />
    <glyph glyph-name="Ucircumflex" unicode="&#xdb;" horiz-adv-x="1493" 
d="M1306 1462v-946q0 -155 -62.5 -276t-188.5 -190.5t-316 -69.5q-271 0 -412.5 147t-141.5 393v942h171v-947q0 -186 98.5 -287t294.5 -101q134 0 219.5 48.5t127 136t41.5 202.5v948h169zM834 1935q25 -45 70 -101.5t95 -110.5t89 -93v-22h-118q-54 35 -111 86t-111 106
q-54 -55 -109.5 -105.5t-109.5 -86.5h-114v22q38 40 86.5 94t93 110t70.5 101h169z" />
    <glyph glyph-name="Udieresis" unicode="&#xdc;" horiz-adv-x="1493" 
d="M1306 1462v-946q0 -155 -62.5 -276t-188.5 -190.5t-316 -69.5q-271 0 -412.5 147t-141.5 393v942h171v-947q0 -186 98.5 -287t294.5 -101q134 0 219.5 48.5t127 136t41.5 202.5v948h169zM465 1761q0 50 26 73t64 23q39 0 65.5 -23t26.5 -73q0 -49 -26.5 -73.5
t-65.5 -24.5q-38 0 -64 24.5t-26 73.5zM849 1761q0 50 26 73t63 23q38 0 65 -23t27 -73q0 -49 -27 -73.5t-65 -24.5q-37 0 -63 24.5t-26 73.5z" />
    <glyph glyph-name="Yacute" unicode="&#xdd;" horiz-adv-x="1145" 
d="M573 729l389 733h183l-487 -895v-567h-170v559l-488 903h186zM863 1936v-20q-20 -29 -54.5 -69.5t-76.5 -85t-84.5 -84.5t-78.5 -69h-111v24q32 38 70 91.5t74 110t60 102.5h201z" />
    <glyph glyph-name="Thorn" unicode="&#xde;" horiz-adv-x="1232" 
d="M1127 782q0 -94 -30 -177.5t-97.5 -147t-179 -100t-274.5 -36.5h-176v-321h-170v1462h170v-256h209q290 0 419 -110.5t129 -313.5zM370 466h158q144 0 237.5 30.5t139.5 98t46 178.5q0 147 -91.5 217.5t-294.5 70.5h-195v-595z" />
    <glyph glyph-name="germandbls" unicode="&#xdf;" horiz-adv-x="1275" 
d="M1050 1268q0 -71 -29 -122t-71.5 -90t-85 -72t-71.5 -65.5t-29 -72.5q0 -31 14.5 -55t54 -54.5t113.5 -79.5q72 -48 125 -97t81.5 -108.5t28.5 -142.5q0 -112 -47 -185t-131.5 -108.5t-197.5 -35.5q-97 0 -169 17.5t-126 49.5v151q37 -21 83.5 -40t99.5 -31t107 -12
q116 0 167.5 49.5t51.5 133.5q0 53 -18.5 92t-61 76.5t-113.5 83.5q-83 54 -132 98t-70 88.5t-21 100.5q0 65 28 109.5t70 78.5t83.5 66t69.5 71.5t28 95.5q0 88 -72.5 129t-187.5 41q-77 0 -141 -21.5t-102 -73t-38 -142.5v-1191h-166v1191q0 137 58 219.5t159 119.5
t230 37t225 -33.5t149.5 -100t53.5 -165.5z" />
    <glyph glyph-name="agrave" unicode="&#xe0;" horiz-adv-x="1138" 
d="M585 1114q196 0 291 -88t95 -281v-745h-121l-32 162h-8q-46 -60 -96 -100.5t-115.5 -61t-160.5 -20.5q-100 0 -177.5 35t-122 106t-44.5 180q0 164 130 252t396 96l189 8v67q0 142 -61 199t-172 57q-86 0 -164 -25t-148 -59l-51 126q74 38 170 65t202 27zM807 540
l-167 -7q-205 -8 -289 -67t-84 -167q0 -94 57 -139t151 -45q146 0 239 81t93 243v101zM500 1569q24 -46 59.5 -102.5t75 -110t72.5 -91.5v-24h-113q-36 29 -78.5 69t-84.5 84.5t-76 85t-53 69.5v20h198z" />
    <glyph glyph-name="aacute" unicode="&#xe1;" horiz-adv-x="1138" 
d="M585 1114q196 0 291 -88t95 -281v-745h-121l-32 162h-8q-46 -60 -96 -100.5t-115.5 -61t-160.5 -20.5q-100 0 -177.5 35t-122 106t-44.5 180q0 164 130 252t396 96l189 8v67q0 142 -61 199t-172 57q-86 0 -164 -25t-148 -59l-51 126q74 38 170 65t202 27zM807 540
l-167 -7q-205 -8 -289 -67t-84 -167q0 -94 57 -139t151 -45q146 0 239 81t93 243v101zM859 1569v-20q-20 -29 -54.5 -69.5t-76.5 -85t-84.5 -84.5t-78.5 -69h-111v24q32 38 70 91.5t74 110t60 102.5h201z" />
    <glyph glyph-name="acircumflex" unicode="&#xe2;" horiz-adv-x="1138" 
d="M585 1114q196 0 291 -88t95 -281v-745h-121l-32 162h-8q-46 -60 -96 -100.5t-115.5 -61t-160.5 -20.5q-100 0 -177.5 35t-122 106t-44.5 180q0 164 130 252t396 96l189 8v67q0 142 -61 199t-172 57q-86 0 -164 -25t-148 -59l-51 126q74 38 170 65t202 27zM807 540
l-167 -7q-205 -8 -289 -67t-84 -167q0 -94 57 -139t151 -45q146 0 239 81t93 243v101zM655 1568q25 -45 70 -101.5t95 -110.5t89 -93v-22h-118q-54 35 -111 86t-111 106q-54 -55 -109.5 -105.5t-109.5 -86.5h-114v22q38 40 86.5 94t93 110t70.5 101h169z" />
    <glyph glyph-name="atilde" unicode="&#xe3;" horiz-adv-x="1138" 
d="M585 1114q196 0 291 -88t95 -281v-745h-121l-32 162h-8q-46 -60 -96 -100.5t-115.5 -61t-160.5 -20.5q-100 0 -177.5 35t-122 106t-44.5 180q0 164 130 252t396 96l189 8v67q0 142 -61 199t-172 57q-86 0 -164 -25t-148 -59l-51 126q74 38 170 65t202 27zM807 540
l-167 -7q-205 -8 -289 -67t-84 -167q0 -94 57 -139t151 -45q146 0 239 81t93 243v101zM191 1244q6 60 23 107t45 80t66.5 50.5t85.5 17.5q46 0 88 -18.5t80 -42t73.5 -42t68.5 -18.5q48 0 74.5 29.5t40.5 93.5h98q-13 -117 -69 -186.5t-151 -69.5q-44 0 -85 18.5t-79 42
t-74.5 42t-71.5 18.5q-49 0 -75 -29.5t-40 -92.5h-98z" />
    <glyph glyph-name="adieresis" unicode="&#xe4;" horiz-adv-x="1138" 
d="M585 1114q196 0 291 -88t95 -281v-745h-121l-32 162h-8q-46 -60 -96 -100.5t-115.5 -61t-160.5 -20.5q-100 0 -177.5 35t-122 106t-44.5 180q0 164 130 252t396 96l189 8v67q0 142 -61 199t-172 57q-86 0 -164 -25t-148 -59l-51 126q74 38 170 65t202 27zM807 540
l-167 -7q-205 -8 -289 -67t-84 -167q0 -94 57 -139t151 -45q146 0 239 81t93 243v101zM286 1394q0 50 26 73t64 23q39 0 65.5 -23t26.5 -73q0 -49 -26.5 -73.5t-65.5 -24.5q-38 0 -64 24.5t-26 73.5zM670 1394q0 50 26 73t63 23q38 0 65 -23t27 -73q0 -49 -27 -73.5
t-65 -24.5q-37 0 -63 24.5t-26 73.5z" />
    <glyph glyph-name="aring" unicode="&#xe5;" horiz-adv-x="1138" 
d="M585 1114q196 0 291 -88t95 -281v-745h-121l-32 162h-8q-46 -60 -96 -100.5t-115.5 -61t-160.5 -20.5q-100 0 -177.5 35t-122 106t-44.5 180q0 164 130 252t396 96l189 8v67q0 142 -61 199t-172 57q-86 0 -164 -25t-148 -59l-51 126q74 38 170 65t202 27zM807 540
l-167 -7q-205 -8 -289 -67t-84 -167q0 -94 57 -139t151 -45q146 0 239 81t93 243v101zM569 1242q-97 0 -159 57t-62 159q0 100 61.5 157t159.5 57q95 0 160 -57t65 -155q0 -103 -64 -160.5t-161 -57.5zM569 1338q53 0 86.5 32.5t33.5 87.5t-34.5 87t-85.5 32
q-50 0 -84.5 -32t-34.5 -87t31 -87.5t88 -32.5z" />
    <glyph glyph-name="ae" unicode="&#xe6;" horiz-adv-x="1766" 
d="M1235 1116q133 0 228.5 -62t146.5 -173t50 -257v-105h-709q4 -202 87 -299.5t239 -97.5q100 0 177 19t158 56v-146q-82 -37 -160.5 -54t-179.5 -17q-96 0 -175.5 27.5t-140 81t-100.5 131.5q-45 -73 -100.5 -127t-131.5 -83.5t-183 -29.5q-100 0 -178.5 35t-123.5 106
t-45 180t55.5 184.5t167 117t278.5 46.5l186 8v71q0 139 -63 195.5t-171 56.5q-81 0 -159.5 -24.5t-148.5 -59.5l-52 126q74 39 173.5 65.5t199.5 26.5q129 0 211.5 -45t121.5 -146q53 91 140 142t202 51zM777 540l-157 -7q-193 -8 -273 -67t-80 -167q0 -94 54.5 -139
t145.5 -45q90 0 160 36t110 108t40 180v101zM1233 980q-121 0 -194 -84.5t-84 -245.5h529q1 99 -26 173.5t-83 115.5t-142 41z" />
    <glyph glyph-name="ccedilla" unicode="&#xe7;" horiz-adv-x="981" 
d="M614 -20q-148 0 -261 61t-176 186t-63 315q0 199 66.5 325.5t183.5 187.5t266 61q82 0 158.5 -16.5t125.5 -41.5l-50 -139q-50 20 -115.5 36t-122.5 16q-114 0 -189.5 -49t-113 -144t-37.5 -234q0 -133 36.5 -227t109 -143.5t181.5 -49.5q87 0 157 18.5t127 43.5v-148
q-55 -28 -122.5 -43t-160.5 -15zM777 -286q0 -97 -75 -151.5t-220 -54.5q-31 0 -59 3.5t-45 7.5v105q19 -4 49 -7t60 -3q75 0 115 22t40 74q0 55 -53.5 80t-136.5 34l89 176h111l-54 -112q50 -10 90.5 -31t64.5 -56t24 -87z" />
    <glyph glyph-name="egrave" unicode="&#xe8;" horiz-adv-x="1150" 
d="M597 1116q140 0 240 -62t153 -173.5t53 -260.5v-103h-757q3 -193 96 -294t262 -101q104 0 184 19t166 56v-146q-83 -37 -164.5 -54t-192.5 -17q-158 0 -275.5 64.5t-182.5 189.5t-65 306q0 177 59.5 306.5t168 199.5t255.5 70zM595 980q-133 0 -212 -87t-94 -243h580
q-1 98 -30.5 172.5t-89.5 116t-154 41.5zM514 1569q24 -46 59.5 -102.5t75 -110t72.5 -91.5v-24h-113q-36 29 -78.5 69t-84.5 84.5t-76 85t-53 69.5v20h198z" />
    <glyph glyph-name="eacute" unicode="&#xe9;" horiz-adv-x="1150" 
d="M597 1116q140 0 240 -62t153 -173.5t53 -260.5v-103h-757q3 -193 96 -294t262 -101q104 0 184 19t166 56v-146q-83 -37 -164.5 -54t-192.5 -17q-158 0 -275.5 64.5t-182.5 189.5t-65 306q0 177 59.5 306.5t168 199.5t255.5 70zM595 980q-133 0 -212 -87t-94 -243h580
q-1 98 -30.5 172.5t-89.5 116t-154 41.5zM872 1569v-20q-20 -29 -54.5 -69.5t-76.5 -85t-84.5 -84.5t-78.5 -69h-111v24q32 38 70 91.5t74 110t60 102.5h201z" />
    <glyph glyph-name="ecircumflex" unicode="&#xea;" horiz-adv-x="1150" 
d="M597 1116q140 0 240 -62t153 -173.5t53 -260.5v-103h-757q3 -193 96 -294t262 -101q104 0 184 19t166 56v-146q-83 -37 -164.5 -54t-192.5 -17q-158 0 -275.5 64.5t-182.5 189.5t-65 306q0 177 59.5 306.5t168 199.5t255.5 70zM595 980q-133 0 -212 -87t-94 -243h580
q-1 98 -30.5 172.5t-89.5 116t-154 41.5zM669 1568q25 -45 70 -101.5t95 -110.5t89 -93v-22h-118q-54 35 -111 86t-111 106q-54 -55 -109.5 -105.5t-109.5 -86.5h-114v22q38 40 86.5 94t93 110t70.5 101h169z" />
    <glyph glyph-name="edieresis" unicode="&#xeb;" horiz-adv-x="1150" 
d="M597 1116q140 0 240 -62t153 -173.5t53 -260.5v-103h-757q3 -193 96 -294t262 -101q104 0 184 19t166 56v-146q-83 -37 -164.5 -54t-192.5 -17q-158 0 -275.5 64.5t-182.5 189.5t-65 306q0 177 59.5 306.5t168 199.5t255.5 70zM595 980q-133 0 -212 -87t-94 -243h580
q-1 98 -30.5 172.5t-89.5 116t-154 41.5zM300 1394q0 50 26 73t64 23q39 0 65.5 -23t26.5 -73q0 -49 -26.5 -73.5t-65.5 -24.5q-38 0 -64 24.5t-26 73.5zM684 1394q0 50 26 73t63 23q38 0 65 -23t27 -73q0 -49 -27 -73.5t-65 -24.5q-37 0 -63 24.5t-26 73.5z" />
    <glyph glyph-name="igrave" unicode="&#xec;" horiz-adv-x="517" 
d="M341 0h-166v1096h166v-1096zM190 1569q24 -46 59.5 -102.5t75 -110t72.5 -91.5v-24h-113q-36 29 -78.5 69t-84.5 84.5t-76 85t-53 69.5v20h198z" />
    <glyph glyph-name="iacute" unicode="&#xed;" horiz-adv-x="517" 
d="M341 0h-166v1096h166v-1096zM548 1569v-20q-20 -29 -54.5 -69.5t-76.5 -85t-84.5 -84.5t-78.5 -69h-111v24q32 38 70 91.5t74 110t60 102.5h201z" />
    <glyph glyph-name="icircumflex" unicode="&#xee;" horiz-adv-x="517" 
d="M341 0h-166v1096h166v-1096zM344 1568q25 -45 70 -101.5t95 -110.5t89 -93v-22h-118q-54 35 -111 86t-111 106q-54 -55 -109.5 -105.5t-109.5 -86.5h-114v22q38 40 86.5 94t93 110t70.5 101h169z" />
    <glyph glyph-name="idieresis" unicode="&#xef;" horiz-adv-x="517" 
d="M341 0h-166v1096h166v-1096zM-25 1394q0 50 26 73t64 23q39 0 65.5 -23t26.5 -73q0 -49 -26.5 -73.5t-65.5 -24.5q-38 0 -64 24.5t-26 73.5zM359 1394q0 50 26 73t63 23q38 0 65 -23t27 -73q0 -49 -27 -73.5t-65 -24.5q-37 0 -63 24.5t-26 73.5z" />
    <glyph glyph-name="eth" unicode="&#xf0;" horiz-adv-x="1228" 
d="M439 1565q68 -31 133 -68t123 -80l235 137l72 -102l-204 -119q95 -89 166.5 -205.5t111 -258.5t39.5 -307q0 -190 -60 -320t-173 -196t-272 -66q-146 0 -258.5 60t-175.5 171.5t-63 263.5q0 153 59 263t166.5 169.5t252.5 59.5q75 0 136 -13.5t108.5 -40.5t79.5 -68l9 3
q-32 121 -100.5 224t-157.5 184l-267 -154l-71 104l231 133q-43 30 -91 58.5t-97 53.5zM616 832q-115 0 -189 -42t-109.5 -123t-35.5 -198q0 -104 35.5 -184t109 -124.5t187.5 -44.5q171 0 252 104t81 302q0 62 -19.5 117.5t-59.5 99t-102.5 68.5t-149.5 25z" />
    <glyph glyph-name="ntilde" unicode="&#xf1;" horiz-adv-x="1256" 
d="M694 1116q195 0 295 -95.5t100 -306.5v-714h-164v703q0 137 -62.5 205t-191.5 68q-182 0 -256 -103t-74 -299v-574h-166v1096h134l25 -158h9q35 58 89 97.5t121 60t141 20.5zM254 1244q6 60 23 107t45 80t66.5 50.5t85.5 17.5q46 0 88 -18.5t80 -42t73.5 -42t68.5 -18.5
q48 0 74.5 29.5t40.5 93.5h98q-13 -117 -69 -186.5t-151 -69.5q-44 0 -85 18.5t-79 42t-74.5 42t-71.5 18.5q-49 0 -75 -29.5t-40 -92.5h-98z" />
    <glyph glyph-name="ograve" unicode="&#xf2;" horiz-adv-x="1232" 
d="M1120 550q0 -135 -35 -241t-101 -179t-159.5 -111.5t-211.5 -38.5q-110 0 -201.5 38.5t-158 111.5t-103 179t-36.5 241q0 180 61 306.5t174.5 193t270.5 66.5q150 0 262.5 -67t175 -193.5t62.5 -305.5zM286 550q0 -132 35 -229t108 -150t188 -53q114 0 187.5 53
t108.5 150t35 229q0 131 -35 226.5t-108 147.5t-189 52q-171 0 -250.5 -113t-79.5 -313zM548 1569q24 -46 59.5 -102.5t75 -110t72.5 -91.5v-24h-113q-36 29 -78.5 69t-84.5 84.5t-76 85t-53 69.5v20h198z" />
    <glyph glyph-name="oacute" unicode="&#xf3;" horiz-adv-x="1232" 
d="M1120 550q0 -135 -35 -241t-101 -179t-159.5 -111.5t-211.5 -38.5q-110 0 -201.5 38.5t-158 111.5t-103 179t-36.5 241q0 180 61 306.5t174.5 193t270.5 66.5q150 0 262.5 -67t175 -193.5t62.5 -305.5zM286 550q0 -132 35 -229t108 -150t188 -53q114 0 187.5 53
t108.5 150t35 229q0 131 -35 226.5t-108 147.5t-189 52q-171 0 -250.5 -113t-79.5 -313zM907 1569v-20q-20 -29 -54.5 -69.5t-76.5 -85t-84.5 -84.5t-78.5 -69h-111v24q32 38 70 91.5t74 110t60 102.5h201z" />
    <glyph glyph-name="ocircumflex" unicode="&#xf4;" horiz-adv-x="1232" 
d="M1120 550q0 -135 -35 -241t-101 -179t-159.5 -111.5t-211.5 -38.5q-110 0 -201.5 38.5t-158 111.5t-103 179t-36.5 241q0 180 61 306.5t174.5 193t270.5 66.5q150 0 262.5 -67t175 -193.5t62.5 -305.5zM286 550q0 -132 35 -229t108 -150t188 -53q114 0 187.5 53
t108.5 150t35 229q0 131 -35 226.5t-108 147.5t-189 52q-171 0 -250.5 -113t-79.5 -313zM703 1568q25 -45 70 -101.5t95 -110.5t89 -93v-22h-118q-54 35 -111 86t-111 106q-54 -55 -109.5 -105.5t-109.5 -86.5h-114v22q38 40 86.5 94t93 110t70.5 101h169z" />
    <glyph glyph-name="otilde" unicode="&#xf5;" horiz-adv-x="1232" 
d="M1120 550q0 -135 -35 -241t-101 -179t-159.5 -111.5t-211.5 -38.5q-110 0 -201.5 38.5t-158 111.5t-103 179t-36.5 241q0 180 61 306.5t174.5 193t270.5 66.5q150 0 262.5 -67t175 -193.5t62.5 -305.5zM286 550q0 -132 35 -229t108 -150t188 -53q114 0 187.5 53
t108.5 150t35 229q0 131 -35 226.5t-108 147.5t-189 52q-171 0 -250.5 -113t-79.5 -313zM240 1244q6 60 23 107t45 80t66.5 50.5t85.5 17.5q46 0 88 -18.5t80 -42t73.5 -42t68.5 -18.5q48 0 74.5 29.5t40.5 93.5h98q-13 -117 -69 -186.5t-151 -69.5q-44 0 -85 18.5t-79 42
t-74.5 42t-71.5 18.5q-49 0 -75 -29.5t-40 -92.5h-98z" />
    <glyph glyph-name="odieresis" unicode="&#xf6;" horiz-adv-x="1232" 
d="M1120 550q0 -135 -35 -241t-101 -179t-159.5 -111.5t-211.5 -38.5q-110 0 -201.5 38.5t-158 111.5t-103 179t-36.5 241q0 180 61 306.5t174.5 193t270.5 66.5q150 0 262.5 -67t175 -193.5t62.5 -305.5zM286 550q0 -132 35 -229t108 -150t188 -53q114 0 187.5 53
t108.5 150t35 229q0 131 -35 226.5t-108 147.5t-189 52q-171 0 -250.5 -113t-79.5 -313zM334 1394q0 50 26 73t64 23q39 0 65.5 -23t26.5 -73q0 -49 -26.5 -73.5t-65.5 -24.5q-38 0 -64 24.5t-26 73.5zM718 1394q0 50 26 73t63 23q38 0 65 -23t27 -73q0 -49 -27 -73.5
t-65 -24.5q-37 0 -63 24.5t-26 73.5z" />
    <glyph glyph-name="divide" unicode="&#xf7;" horiz-adv-x="1171" 
d="M103 654v136h963v-136h-963zM584 253q-46 0 -77 28.5t-31 89.5q0 65 31 91t77 26q44 0 75 -26t31 -91q0 -61 -31 -89.5t-75 -28.5zM584 955q-46 0 -77 28.5t-31 89.5q0 64 31 90t77 26q44 0 75 -26t31 -90q0 -61 -31 -89.5t-75 -28.5z" />
    <glyph glyph-name="oslash" unicode="&#xf8;" horiz-adv-x="1232" 
d="M1120 550q0 -180 -61.5 -307.5t-175 -195t-270.5 -67.5q-79 0 -146.5 18.5t-124.5 55.5l-88 -121l-109 75l97 132q-61 75 -94.5 177.5t-33.5 232.5q0 270 135.5 418t370.5 148q78 0 147 -20t125 -58l85 119l112 -73l-97 -132q60 -73 94 -174t34 -228zM286 550
q0 -82 12.5 -150.5t40.5 -120.5l468 640q-37 27 -85 42t-106 15q-171 0 -250.5 -113t-79.5 -313zM948 550q0 79 -13 146t-39 118l-468 -641q35 -27 83.5 -41t105.5 -14q114 0 187.5 53t108.5 150t35 229z" />
    <glyph glyph-name="ugrave" unicode="&#xf9;" horiz-adv-x="1256" 
d="M1080 1096v-1096h-136l-24 154h-9q-34 -57 -88 -96t-121.5 -58.5t-143.5 -19.5q-130 0 -218 42t-132.5 130t-44.5 226v718h168v-706q0 -137 62 -204.5t189 -67.5q122 0 194.5 46t104.5 135.5t32 219.5v577h167zM560 1569q24 -46 59.5 -102.5t75 -110t72.5 -91.5v-24h-113
q-36 29 -78.5 69t-84.5 84.5t-76 85t-53 69.5v20h198z" />
    <glyph glyph-name="uacute" unicode="&#xfa;" horiz-adv-x="1256" 
d="M1080 1096v-1096h-136l-24 154h-9q-34 -57 -88 -96t-121.5 -58.5t-143.5 -19.5q-130 0 -218 42t-132.5 130t-44.5 226v718h168v-706q0 -137 62 -204.5t189 -67.5q122 0 194.5 46t104.5 135.5t32 219.5v577h167zM918 1569v-20q-20 -29 -54.5 -69.5t-76.5 -85t-84.5 -84.5
t-78.5 -69h-111v24q32 38 70 91.5t74 110t60 102.5h201z" />
    <glyph glyph-name="ucircumflex" unicode="&#xfb;" horiz-adv-x="1256" 
d="M1080 1096v-1096h-136l-24 154h-9q-34 -57 -88 -96t-121.5 -58.5t-143.5 -19.5q-130 0 -218 42t-132.5 130t-44.5 226v718h168v-706q0 -137 62 -204.5t189 -67.5q122 0 194.5 46t104.5 135.5t32 219.5v577h167zM714 1568q25 -45 70 -101.5t95 -110.5t89 -93v-22h-118
q-54 35 -111 86t-111 106q-54 -55 -109.5 -105.5t-109.5 -86.5h-114v22q38 40 86.5 94t93 110t70.5 101h169z" />
    <glyph glyph-name="udieresis" unicode="&#xfc;" horiz-adv-x="1256" 
d="M1080 1096v-1096h-136l-24 154h-9q-34 -57 -88 -96t-121.5 -58.5t-143.5 -19.5q-130 0 -218 42t-132.5 130t-44.5 226v718h168v-706q0 -137 62 -204.5t189 -67.5q122 0 194.5 46t104.5 135.5t32 219.5v577h167zM345 1394q0 50 26 73t64 23q39 0 65.5 -23t26.5 -73
q0 -49 -26.5 -73.5t-65.5 -24.5q-38 0 -64 24.5t-26 73.5zM729 1394q0 50 26 73t63 23q38 0 65 -23t27 -73q0 -49 -27 -73.5t-65 -24.5q-37 0 -63 24.5t-26 73.5z" />
    <glyph glyph-name="yacute" unicode="&#xfd;" horiz-adv-x="1026" 
d="M2 1096h178l242 -636q21 -56 39 -107.5t32 -98.5t22 -91h7q14 50 40 131.5t56 166.5l229 635h179l-477 -1257q-38 -101 -88.5 -176t-122.5 -115.5t-174 -40.5q-47 0 -83 5.5t-62 12.5v133q22 -5 53.5 -9t65.5 -4q62 0 107.5 23.5t78.5 68.5t57 107l60 154zM802 1569v-20
q-20 -29 -54.5 -69.5t-76.5 -85t-84.5 -84.5t-78.5 -69h-111v24q32 38 70 91.5t74 110t60 102.5h201z" />
    <glyph glyph-name="thorn" unicode="&#xfe;" horiz-adv-x="1253" 
d="M1139 551q0 -187 -56 -314t-157 -192t-238 -65q-88 0 -154 23t-113 61.5t-79 85.5h-12q2 -18 5 -52.5t5 -70.5t2 -60v-457h-167v2046h167v-461q0 -31 -2 -80t-4 -78h7q32 49 78.5 89.5t112.5 65t156 24.5q205 0 327 -143t122 -422zM968 553q0 212 -74.5 317.5
t-230.5 105.5q-172 0 -245.5 -98.5t-75.5 -292.5v-36q0 -208 71 -319.5t250 -111.5q103 0 170.5 50.5t101 147.5t33.5 237z" />
    <glyph glyph-name="ydieresis" unicode="&#xff;" horiz-adv-x="1026" 
d="M2 1096h178l242 -636q21 -56 39 -107.5t32 -98.5t22 -91h7q14 50 40 131.5t56 166.5l229 635h179l-477 -1257q-38 -101 -88.5 -176t-122.5 -115.5t-174 -40.5q-47 0 -83 5.5t-62 12.5v133q22 -5 53.5 -9t65.5 -4q62 0 107.5 23.5t78.5 68.5t57 107l60 154zM229 1394
q0 50 26 73t64 23q39 0 65.5 -23t26.5 -73q0 -49 -26.5 -73.5t-65.5 -24.5q-38 0 -64 24.5t-26 73.5zM613 1394q0 50 26 73t63 23q38 0 65 -23t27 -73q0 -49 -27 -73.5t-65 -24.5q-37 0 -63 24.5t-26 73.5z" />
    <glyph glyph-name="Amacron" unicode="&#x100;" horiz-adv-x="1295" 
d="M1117 0l-180 464h-586l-179 -464h-172l572 1468h153l568 -1468h-176zM886 615l-171 461q-6 18 -19.5 59t-27.5 85t-23 71q-10 -41 -21.5 -81.5t-22.5 -75t-19 -58.5l-174 -461h478zM944 1744v-134h-599v134h599z" />
    <glyph glyph-name="amacron" unicode="&#x101;" horiz-adv-x="1138" 
d="M585 1114q196 0 291 -88t95 -281v-745h-121l-32 162h-8q-46 -60 -96 -100.5t-115.5 -61t-160.5 -20.5q-100 0 -177.5 35t-122 106t-44.5 180q0 164 130 252t396 96l189 8v67q0 142 -61 199t-172 57q-86 0 -164 -25t-148 -59l-51 126q74 38 170 65t202 27zM807 540
l-167 -7q-205 -8 -289 -67t-84 -167q0 -94 57 -139t151 -45q146 0 239 81t93 243v101zM867 1377v-134h-599v134h599z" />
    <glyph glyph-name="Abreve" unicode="&#x102;" horiz-adv-x="1295" 
d="M1117 0l-180 464h-586l-179 -464h-172l572 1468h153l568 -1468h-176zM886 615l-171 461q-6 18 -19.5 59t-27.5 85t-23 71q-10 -41 -21.5 -81.5t-22.5 -75t-19 -58.5l-174 -461h478zM964 1878q-7 -81 -45.5 -141.5t-106.5 -94.5t-164 -34q-147 0 -222.5 73t-83.5 197h104
q6 -56 31 -85t69 -39.5t106 -10.5q55 0 99 11.5t72 41t35 82.5h106z" />
    <glyph glyph-name="abreve" unicode="&#x103;" horiz-adv-x="1138" 
d="M585 1114q196 0 291 -88t95 -281v-745h-121l-32 162h-8q-46 -60 -96 -100.5t-115.5 -61t-160.5 -20.5q-100 0 -177.5 35t-122 106t-44.5 180q0 164 130 252t396 96l189 8v67q0 142 -61 199t-172 57q-86 0 -164 -25t-148 -59l-51 126q74 38 170 65t202 27zM807 540
l-167 -7q-205 -8 -289 -67t-84 -167q0 -94 57 -139t151 -45q146 0 239 81t93 243v101zM887 1511q-7 -81 -45.5 -141.5t-106.5 -94.5t-164 -34q-147 0 -222.5 73t-83.5 197h104q6 -56 31 -85t69 -39.5t106 -10.5q55 0 99 11.5t72 41t35 82.5h106z" />
    <glyph glyph-name="Aogonek" unicode="&#x104;" horiz-adv-x="1295" 
d="M1117 0l-180 464h-586l-179 -464h-172l572 1468h153l568 -1468h-176zM886 615l-171 461q-6 18 -19.5 59t-27.5 85t-23 71q-10 -41 -21.5 -81.5t-22.5 -75t-19 -58.5l-174 -461h478zM1099 -241q0 -47 25 -71.5t71 -24.5q33 0 57 4.5t41 8.5v-108q-28 -7 -57 -12.5
t-68 -5.5q-105 0 -155.5 50t-50.5 140q0 58 29 112.5t73 100.5t88 77l92 -30q-70 -64 -107.5 -120t-37.5 -121z" />
    <glyph glyph-name="aogonek" unicode="&#x105;" horiz-adv-x="1138" 
d="M585 1114q196 0 291 -88t95 -281v-745h-121l-32 162h-8q-46 -60 -96 -100.5t-115.5 -61t-160.5 -20.5q-100 0 -177.5 35t-122 106t-44.5 180q0 164 130 252t396 96l189 8v67q0 142 -61 199t-172 57q-86 0 -164 -25t-148 -59l-51 126q74 38 170 65t202 27zM807 540
l-167 -7q-205 -8 -289 -67t-84 -167q0 -94 57 -139t151 -45q146 0 239 81t93 243v101zM828 -241q0 -47 25 -71.5t71 -24.5q33 0 57 4.5t41 8.5v-108q-28 -7 -57 -12.5t-68 -5.5q-105 0 -155.5 50t-50.5 140q0 58 29 112.5t73 100.5t88 77l92 -30q-70 -64 -107.5 -120
t-37.5 -121z" />
    <glyph glyph-name="Cacute" unicode="&#x106;" horiz-adv-x="1290" 
d="M825 1333q-121 0 -217.5 -41.5t-164 -120t-103.5 -189.5t-36 -250q0 -184 57.5 -319.5t172 -209.5t286.5 -74q98 0 184.5 16.5t168.5 41.5v-148q-80 -30 -168 -44.5t-209 -14.5q-223 0 -372.5 92.5t-224 261.5t-74.5 399q0 166 46.5 303.5t136 237.5t220 154.5
t299.5 54.5q111 0 214 -22t186 -63l-68 -144q-70 32 -153.5 55.5t-180.5 23.5zM1066 1936v-20q-20 -29 -54.5 -69.5t-76.5 -85t-84.5 -84.5t-78.5 -69h-111v24q32 38 70 91.5t74 110t60 102.5h201z" />
    <glyph glyph-name="cacute" unicode="&#x107;" horiz-adv-x="981" 
d="M614 -20q-148 0 -261 61t-176 186t-63 315q0 199 66.5 325.5t183.5 187.5t266 61q82 0 158.5 -16.5t125.5 -41.5l-50 -139q-50 20 -115.5 36t-122.5 16q-114 0 -189.5 -49t-113 -144t-37.5 -234q0 -133 36.5 -227t109 -143.5t181.5 -49.5q87 0 157 18.5t127 43.5v-148
q-55 -28 -122.5 -43t-160.5 -15zM872 1569v-20q-20 -29 -54.5 -69.5t-76.5 -85t-84.5 -84.5t-78.5 -69h-111v24q32 38 70 91.5t74 110t60 102.5h201z" />
    <glyph glyph-name="Ccircumflex" unicode="&#x108;" horiz-adv-x="1290" 
d="M825 1333q-121 0 -217.5 -41.5t-164 -120t-103.5 -189.5t-36 -250q0 -184 57.5 -319.5t172 -209.5t286.5 -74q98 0 184.5 16.5t168.5 41.5v-148q-80 -30 -168 -44.5t-209 -14.5q-223 0 -372.5 92.5t-224 261.5t-74.5 399q0 166 46.5 303.5t136 237.5t220 154.5
t299.5 54.5q111 0 214 -22t186 -63l-68 -144q-70 32 -153.5 55.5t-180.5 23.5zM862 1935q25 -45 70 -101.5t95 -110.5t89 -93v-22h-118q-54 35 -111 86t-111 106q-54 -55 -109.5 -105.5t-109.5 -86.5h-114v22q38 40 86.5 94t93 110t70.5 101h169z" />
    <glyph glyph-name="ccircumflex" unicode="&#x109;" horiz-adv-x="981" 
d="M614 -20q-148 0 -261 61t-176 186t-63 315q0 199 66.5 325.5t183.5 187.5t266 61q82 0 158.5 -16.5t125.5 -41.5l-50 -139q-50 20 -115.5 36t-122.5 16q-114 0 -189.5 -49t-113 -144t-37.5 -234q0 -133 36.5 -227t109 -143.5t181.5 -49.5q87 0 157 18.5t127 43.5v-148
q-55 -28 -122.5 -43t-160.5 -15zM668 1568q25 -45 70 -101.5t95 -110.5t89 -93v-22h-118q-54 35 -111 86t-111 106q-54 -55 -109.5 -105.5t-109.5 -86.5h-114v22q38 40 86.5 94t93 110t70.5 101h169z" />
    <glyph glyph-name="Cdot" unicode="&#x10a;" horiz-adv-x="1290" 
d="M825 1333q-121 0 -217.5 -41.5t-164 -120t-103.5 -189.5t-36 -250q0 -184 57.5 -319.5t172 -209.5t286.5 -74q98 0 184.5 16.5t168.5 41.5v-148q-80 -30 -168 -44.5t-209 -14.5q-223 0 -372.5 92.5t-224 261.5t-74.5 399q0 166 46.5 303.5t136 237.5t220 154.5
t299.5 54.5q111 0 214 -22t186 -63l-68 -144q-70 32 -153.5 55.5t-180.5 23.5zM780 1873q41 0 70.5 -26.5t29.5 -82.5q0 -55 -29.5 -82t-70.5 -27q-43 0 -71.5 27t-28.5 82q0 56 28.5 82.5t71.5 26.5z" />
    <glyph glyph-name="cdot" unicode="&#x10b;" horiz-adv-x="981" 
d="M614 -20q-148 0 -261 61t-176 186t-63 315q0 199 66.5 325.5t183.5 187.5t266 61q82 0 158.5 -16.5t125.5 -41.5l-50 -139q-50 20 -115.5 36t-122.5 16q-114 0 -189.5 -49t-113 -144t-37.5 -234q0 -133 36.5 -227t109 -143.5t181.5 -49.5q87 0 157 18.5t127 43.5v-148
q-55 -28 -122.5 -43t-160.5 -15zM584 1506q41 0 70.5 -26.5t29.5 -82.5q0 -55 -29.5 -82t-70.5 -27q-43 0 -71.5 27t-28.5 82q0 56 28.5 82.5t71.5 26.5z" />
    <glyph glyph-name="Ccaron" unicode="&#x10c;" horiz-adv-x="1290" 
d="M825 1333q-121 0 -217.5 -41.5t-164 -120t-103.5 -189.5t-36 -250q0 -184 57.5 -319.5t172 -209.5t286.5 -74q98 0 184.5 16.5t168.5 41.5v-148q-80 -30 -168 -44.5t-209 -14.5q-223 0 -372.5 92.5t-224 261.5t-74.5 399q0 166 46.5 303.5t136 237.5t220 154.5
t299.5 54.5q111 0 214 -22t186 -63l-68 -144q-70 32 -153.5 55.5t-180.5 23.5zM690 1608q-26 46 -71 101t-93.5 108.5t-85.5 92.5v25h114q54 -37 111.5 -88.5t107.5 -107.5q54 56 111 107.5t111 88.5h118v-25q-39 -39 -89 -92.5t-95 -108.5t-70 -101h-169z" />
    <glyph glyph-name="ccaron" unicode="&#x10d;" horiz-adv-x="981" 
d="M614 -20q-148 0 -261 61t-176 186t-63 315q0 199 66.5 325.5t183.5 187.5t266 61q82 0 158.5 -16.5t125.5 -41.5l-50 -139q-50 20 -115.5 36t-122.5 16q-114 0 -189.5 -49t-113 -144t-37.5 -234q0 -133 36.5 -227t109 -143.5t181.5 -49.5q87 0 157 18.5t127 43.5v-148
q-55 -28 -122.5 -43t-160.5 -15zM495 1241q-26 46 -71 101t-93.5 108.5t-85.5 92.5v25h114q54 -37 111.5 -88.5t107.5 -107.5q54 56 111 107.5t111 88.5h118v-25q-39 -39 -89 -92.5t-95 -108.5t-70 -101h-169z" />
    <glyph glyph-name="Dcaron" unicode="&#x10e;" horiz-adv-x="1486" 
d="M1361 745q0 -247 -90 -412.5t-260.5 -249t-413.5 -83.5h-397v1462h441q223 0 384 -81.5t248.5 -241t87.5 -394.5zM1182 739q0 197 -65.5 325t-192 190.5t-309.5 62.5h-245v-1171h207q302 0 453.5 149t151.5 444zM650 1608q-26 46 -71 101t-93.5 108.5t-85.5 92.5v25h114
q54 -37 111.5 -88.5t107.5 -107.5q54 56 111 107.5t111 88.5h118v-25q-39 -39 -89 -92.5t-95 -108.5t-70 -101h-169z" />
    <glyph glyph-name="dcaron" unicode="&#x10f;" horiz-adv-x="1253" 
d="M565 -20q-208 0 -329.5 142t-121.5 422q0 283 124 427.5t330 144.5q87 0 152 -23t112 -61.5t79 -87.5h12q-4 31 -8 85t-4 88v439h166v-1556h-134l-25 156h-7q-31 -49 -78.5 -89t-113 -63.5t-154.5 -23.5zM591 118q176 0 249 100t73 297v30q0 209 -69.5 321t-252.5 112
q-153 0 -229 -117.5t-76 -320.5q0 -202 75.5 -312t229.5 -110zM1392 1556v-17q-9 -39 -32 -94.5t-52.5 -112.5t-60.5 -103h-91v23q11 29 21.5 67t20.5 80.5t17.5 83t11.5 73.5h165z" />
    <glyph glyph-name="Dcroat" unicode="&#x110;" horiz-adv-x="1486" 
d="M641 1462q222 0 383.5 -81.5t249 -241t87.5 -394.5q0 -247 -90 -412.5t-261 -249t-415 -83.5h-382v649h-155v149h155v664h428zM615 1317h-233v-519h372v-149h-372v-503h195q303 0 454 149t151 444q0 197 -66 325t-192.5 190.5t-308.5 62.5z" />
    <glyph glyph-name="dcroat" unicode="&#x111;" horiz-adv-x="1256" 
d="M565 -20q-208 0 -329.5 141.5t-121.5 418.5q0 287 124 429t329 142q87 0 152 -23t112.5 -62t79.5 -87h12q-5 31 -8.5 85t-3.5 90v131h-443v125h443v186h166v-186h155v-125h-155v-1245h-136l-24 156h-8q-31 -49 -78 -89t-112.5 -63.5t-153.5 -23.5zM592 118
q176 0 248 98.5t72 294.5v32q0 210 -69 320t-252 110q-153 0 -228.5 -115t-75.5 -319q0 -202 75 -311.5t230 -109.5z" />
    <glyph glyph-name="Emacron" unicode="&#x112;" horiz-adv-x="1138" 
d="M1014 0h-814v1462h814v-150h-644v-473h607v-148h-607v-541h644v-150zM925 1744v-134h-599v134h599z" />
    <glyph glyph-name="emacron" unicode="&#x113;" horiz-adv-x="1150" 
d="M597 1116q140 0 240 -62t153 -173.5t53 -260.5v-103h-757q3 -193 96 -294t262 -101q104 0 184 19t166 56v-146q-83 -37 -164.5 -54t-192.5 -17q-158 0 -275.5 64.5t-182.5 189.5t-65 306q0 177 59.5 306.5t168 199.5t255.5 70zM595 980q-133 0 -212 -87t-94 -243h580
q-1 98 -30.5 172.5t-89.5 116t-154 41.5zM882 1377v-134h-599v134h599z" />
    <glyph glyph-name="Ebreve" unicode="&#x114;" horiz-adv-x="1138" 
d="M1014 0h-814v1462h814v-150h-644v-473h607v-148h-607v-541h644v-150zM944 1878q-7 -81 -45.5 -141.5t-106.5 -94.5t-164 -34q-147 0 -222.5 73t-83.5 197h104q6 -56 31 -85t69 -39.5t106 -10.5q55 0 99 11.5t72 41t35 82.5h106z" />
    <glyph glyph-name="ebreve" unicode="&#x115;" horiz-adv-x="1150" 
d="M597 1116q140 0 240 -62t153 -173.5t53 -260.5v-103h-757q3 -193 96 -294t262 -101q104 0 184 19t166 56v-146q-83 -37 -164.5 -54t-192.5 -17q-158 0 -275.5 64.5t-182.5 189.5t-65 306q0 177 59.5 306.5t168 199.5t255.5 70zM595 980q-133 0 -212 -87t-94 -243h580
q-1 98 -30.5 172.5t-89.5 116t-154 41.5zM902 1511q-7 -81 -45.5 -141.5t-106.5 -94.5t-164 -34q-147 0 -222.5 73t-83.5 197h104q6 -56 31 -85t69 -39.5t106 -10.5q55 0 99 11.5t72 41t35 82.5h106z" />
    <glyph glyph-name="Edotaccent" unicode="&#x116;" horiz-adv-x="1138" 
d="M1014 0h-814v1462h814v-150h-644v-473h607v-148h-607v-541h644v-150zM628 1873q41 0 70.5 -26.5t29.5 -82.5q0 -55 -29.5 -82t-70.5 -27q-43 0 -71.5 27t-28.5 82q0 56 28.5 82.5t71.5 26.5z" />
    <glyph glyph-name="edotaccent" unicode="&#x117;" horiz-adv-x="1150" 
d="M597 1116q140 0 240 -62t153 -173.5t53 -260.5v-103h-757q3 -193 96 -294t262 -101q104 0 184 19t166 56v-146q-83 -37 -164.5 -54t-192.5 -17q-158 0 -275.5 64.5t-182.5 189.5t-65 306q0 177 59.5 306.5t168 199.5t255.5 70zM595 980q-133 0 -212 -87t-94 -243h580
q-1 98 -30.5 172.5t-89.5 116t-154 41.5zM585 1506q41 0 70.5 -26.5t29.5 -82.5q0 -55 -29.5 -82t-70.5 -27q-43 0 -71.5 27t-28.5 82q0 56 28.5 82.5t71.5 26.5z" />
    <glyph glyph-name="Eogonek" unicode="&#x118;" horiz-adv-x="1138" 
d="M1014 0h-814v1462h814v-150h-644v-473h607v-148h-607v-541h644v-150zM810 -241q0 -47 25 -71.5t71 -24.5q33 0 57 4.5t41 8.5v-108q-28 -7 -57 -12.5t-68 -5.5q-105 0 -155.5 50t-50.5 140q0 58 29 112.5t73 100.5t88 77l92 -30q-70 -64 -107.5 -120t-37.5 -121z" />
    <glyph glyph-name="eogonek" unicode="&#x119;" horiz-adv-x="1150" 
d="M788 -241q0 -47 25 -71.5t70 -24.5q33 0 57.5 4.5t40.5 8.5v-108q-28 -7 -56.5 -12.5t-67.5 -5.5q-105 0 -155.5 50t-50.5 140q0 58 29 112.5t73 101t88 79.5l151 17q-80 -64 -124.5 -113.5t-62 -92t-17.5 -85.5zM597 1116q140 0 240 -62t153 -173.5t53 -260.5v-103h-757
q3 -193 96 -294t262 -101q104 0 184 19t166 56v-146q-83 -37 -164.5 -54t-192.5 -17q-158 0 -275.5 64.5t-182.5 189.5t-65 306q0 177 59.5 306.5t168 199.5t255.5 70zM595 980q-133 0 -212 -87t-94 -243h580q-1 98 -30.5 172.5t-89.5 116t-154 41.5z" />
    <glyph glyph-name="Ecaron" unicode="&#x11a;" horiz-adv-x="1138" 
d="M1014 0h-814v1462h814v-150h-644v-473h607v-148h-607v-541h644v-150zM540 1608q-26 46 -71 101t-93.5 108.5t-85.5 92.5v25h114q54 -37 111.5 -88.5t107.5 -107.5q54 56 111 107.5t111 88.5h118v-25q-39 -39 -89 -92.5t-95 -108.5t-70 -101h-169z" />
    <glyph glyph-name="ecaron" unicode="&#x11b;" horiz-adv-x="1150" 
d="M597 1116q140 0 240 -62t153 -173.5t53 -260.5v-103h-757q3 -193 96 -294t262 -101q104 0 184 19t166 56v-146q-83 -37 -164.5 -54t-192.5 -17q-158 0 -275.5 64.5t-182.5 189.5t-65 306q0 177 59.5 306.5t168 199.5t255.5 70zM595 980q-133 0 -212 -87t-94 -243h580
q-1 98 -30.5 172.5t-89.5 116t-154 41.5zM496 1241q-26 46 -71 101t-93.5 108.5t-85.5 92.5v25h114q54 -37 111.5 -88.5t107.5 -107.5q54 56 111 107.5t111 88.5h118v-25q-39 -39 -89 -92.5t-95 -108.5t-70 -101h-169z" />
    <glyph glyph-name="Gcircumflex" unicode="&#x11c;" horiz-adv-x="1489" 
d="M825 766h511v-709q-115 -39 -236.5 -58t-271.5 -19q-228 0 -384.5 91t-237.5 259.5t-81 400.5q0 227 89.5 396t259 262.5t407.5 93.5q122 0 231.5 -22.5t203.5 -63.5l-65 -148q-81 35 -178.5 60t-201.5 25q-179 0 -306.5 -74t-195 -209t-67.5 -320q0 -183 59 -318.5
t184 -210.5t322 -75q99 0 170 11.5t129 27.5v448h-341v152zM914 1935q25 -45 70 -101.5t95 -110.5t89 -93v-22h-118q-54 35 -111 86t-111 106q-54 -55 -109.5 -105.5t-109.5 -86.5h-114v22q38 40 86.5 94t93 110t70.5 101h169z" />
    <glyph glyph-name="gcircumflex" unicode="&#x11d;" horiz-adv-x="1112" 
d="M481 -492q-216 0 -333 80.5t-117 225.5q0 103 65.5 176t181.5 97q-43 20 -73.5 60t-30.5 92q0 60 33.5 105.5t102.5 87.5q-86 35 -139.5 118.5t-53.5 194.5q0 118 49 201.5t142 127.5t225 44q29 0 58.5 -2.5t56.5 -7t47 -10.5h376v-107l-202 -25q30 -39 50 -94t20 -122
q0 -164 -111 -260.5t-305 -96.5q-46 0 -94 8q-49 -27 -74.5 -60t-25.5 -76q0 -32 19.5 -51t56.5 -27.5t89 -8.5h193q179 0 274.5 -75t95.5 -219q0 -182 -148 -279t-428 -97zM486 -362q136 0 225.5 27.5t134 79t44.5 122.5q0 66 -30 99.5t-88 45t-142 11.5h-190
q-74 0 -129 -23t-84.5 -68t-29.5 -112q0 -89 75 -135.5t214 -46.5zM529 514q119 0 179 60t60 175q0 123 -61 184.5t-180 61.5q-114 0 -175.5 -63.5t-61.5 -185.5q0 -112 62 -172t177 -60zM611 1568q25 -45 70 -101.5t95 -110.5t89 -93v-22h-118q-54 35 -111 86t-111 106
q-54 -55 -109.5 -105.5t-109.5 -86.5h-114v22q38 40 86.5 94t93 110t70.5 101h169z" />
    <glyph glyph-name="Gbreve" unicode="&#x11e;" horiz-adv-x="1489" 
d="M825 766h511v-709q-115 -39 -236.5 -58t-271.5 -19q-228 0 -384.5 91t-237.5 259.5t-81 400.5q0 227 89.5 396t259 262.5t407.5 93.5q122 0 231.5 -22.5t203.5 -63.5l-65 -148q-81 35 -178.5 60t-201.5 25q-179 0 -306.5 -74t-195 -209t-67.5 -320q0 -183 59 -318.5
t184 -210.5t322 -75q99 0 170 11.5t129 27.5v448h-341v152zM1146 1878q-7 -81 -45.5 -141.5t-106.5 -94.5t-164 -34q-147 0 -222.5 73t-83.5 197h104q6 -56 31 -85t69 -39.5t106 -10.5q55 0 99 11.5t72 41t35 82.5h106z" />
    <glyph glyph-name="gbreve" unicode="&#x11f;" horiz-adv-x="1112" 
d="M481 -492q-216 0 -333 80.5t-117 225.5q0 103 65.5 176t181.5 97q-43 20 -73.5 60t-30.5 92q0 60 33.5 105.5t102.5 87.5q-86 35 -139.5 118.5t-53.5 194.5q0 118 49 201.5t142 127.5t225 44q29 0 58.5 -2.5t56.5 -7t47 -10.5h376v-107l-202 -25q30 -39 50 -94t20 -122
q0 -164 -111 -260.5t-305 -96.5q-46 0 -94 8q-49 -27 -74.5 -60t-25.5 -76q0 -32 19.5 -51t56.5 -27.5t89 -8.5h193q179 0 274.5 -75t95.5 -219q0 -182 -148 -279t-428 -97zM486 -362q136 0 225.5 27.5t134 79t44.5 122.5q0 66 -30 99.5t-88 45t-142 11.5h-190
q-74 0 -129 -23t-84.5 -68t-29.5 -112q0 -89 75 -135.5t214 -46.5zM529 514q119 0 179 60t60 175q0 123 -61 184.5t-180 61.5q-114 0 -175.5 -63.5t-61.5 -185.5q0 -112 62 -172t177 -60zM839 1511q-7 -81 -45.5 -141.5t-106.5 -94.5t-164 -34q-147 0 -222.5 73t-83.5 197
h104q6 -56 31 -85t69 -39.5t106 -10.5q55 0 99 11.5t72 41t35 82.5h106z" />
    <glyph glyph-name="Gdot" unicode="&#x120;" horiz-adv-x="1489" 
d="M825 766h511v-709q-115 -39 -236.5 -58t-271.5 -19q-228 0 -384.5 91t-237.5 259.5t-81 400.5q0 227 89.5 396t259 262.5t407.5 93.5q122 0 231.5 -22.5t203.5 -63.5l-65 -148q-81 35 -178.5 60t-201.5 25q-179 0 -306.5 -74t-195 -209t-67.5 -320q0 -183 59 -318.5
t184 -210.5t322 -75q99 0 170 11.5t129 27.5v448h-341v152zM831 1873q41 0 70.5 -26.5t29.5 -82.5q0 -55 -29.5 -82t-70.5 -27q-43 0 -71.5 27t-28.5 82q0 56 28.5 82.5t71.5 26.5z" />
    <glyph glyph-name="gdot" unicode="&#x121;" horiz-adv-x="1112" 
d="M481 -492q-216 0 -333 80.5t-117 225.5q0 103 65.5 176t181.5 97q-43 20 -73.5 60t-30.5 92q0 60 33.5 105.5t102.5 87.5q-86 35 -139.5 118.5t-53.5 194.5q0 118 49 201.5t142 127.5t225 44q29 0 58.5 -2.5t56.5 -7t47 -10.5h376v-107l-202 -25q30 -39 50 -94t20 -122
q0 -164 -111 -260.5t-305 -96.5q-46 0 -94 8q-49 -27 -74.5 -60t-25.5 -76q0 -32 19.5 -51t56.5 -27.5t89 -8.5h193q179 0 274.5 -75t95.5 -219q0 -182 -148 -279t-428 -97zM486 -362q136 0 225.5 27.5t134 79t44.5 122.5q0 66 -30 99.5t-88 45t-142 11.5h-190
q-74 0 -129 -23t-84.5 -68t-29.5 -112q0 -89 75 -135.5t214 -46.5zM529 514q119 0 179 60t60 175q0 123 -61 184.5t-180 61.5q-114 0 -175.5 -63.5t-61.5 -185.5q0 -112 62 -172t177 -60zM530 1506q41 0 70.5 -26.5t29.5 -82.5q0 -55 -29.5 -82t-70.5 -27q-43 0 -71.5 27
t-28.5 82q0 56 28.5 82.5t71.5 26.5z" />
    <glyph glyph-name="uni0122" unicode="&#x122;" horiz-adv-x="1489" 
d="M825 766h511v-709q-115 -39 -236.5 -58t-271.5 -19q-228 0 -384.5 91t-237.5 259.5t-81 400.5q0 227 89.5 396t259 262.5t407.5 93.5q122 0 231.5 -22.5t203.5 -63.5l-65 -148q-81 35 -178.5 60t-201.5 25q-179 0 -306.5 -74t-195 -209t-67.5 -320q0 -183 59 -318.5
t184 -210.5t322 -75q99 0 170 11.5t129 27.5v448h-341v152zM944 -125v-17q-10 -39 -34 -95t-56.5 -113.5t-68.5 -102.5h-91v24q15 34 32.5 88.5t32.5 113t20 102.5h165z" />
    <glyph glyph-name="uni0123" unicode="&#x123;" horiz-adv-x="1112" 
d="M666 1568v-23q-16 -34 -34 -89t-32.5 -113.5t-20.5 -102.5h-165v19q11 38 34.5 93.5t56 113t69.5 102.5h92zM481 -492q-216 0 -333 80.5t-117 225.5q0 103 65.5 176t181.5 97q-43 20 -73.5 60t-30.5 92q0 60 33.5 105.5t102.5 87.5q-86 35 -139.5 118.5t-53.5 194.5
q0 118 49 201.5t142 127.5t225 44q29 0 58.5 -2.5t56.5 -7t47 -10.5h376v-107l-202 -25q30 -39 50 -94t20 -122q0 -164 -111 -260.5t-305 -96.5q-46 0 -94 8q-49 -27 -74.5 -60t-25.5 -76q0 -32 19.5 -51t56.5 -27.5t89 -8.5h193q179 0 274.5 -75t95.5 -219
q0 -182 -148 -279t-428 -97zM486 -362q136 0 225.5 27.5t134 79t44.5 122.5q0 66 -30 99.5t-88 45t-142 11.5h-190q-74 0 -129 -23t-84.5 -68t-29.5 -112q0 -89 75 -135.5t214 -46.5zM529 514q119 0 179 60t60 175q0 123 -61 184.5t-180 61.5q-114 0 -175.5 -63.5
t-61.5 -185.5q0 -112 62 -172t177 -60z" />
    <glyph glyph-name="Hcircumflex" unicode="&#x124;" horiz-adv-x="1510" 
d="M1308 0h-170v689h-768v-689h-170v1462h170v-623h768v623h170v-1462zM843 1935q25 -45 70 -101.5t95 -110.5t89 -93v-22h-118q-54 35 -111 86t-111 106q-54 -55 -109.5 -105.5t-109.5 -86.5h-114v22q38 40 86.5 94t93 110t70.5 101h169z" />
    <glyph glyph-name="hcircumflex" unicode="&#x125;" horiz-adv-x="1256" 
d="M341 1556v-465q0 -40 -2 -80.5t-7 -74.5h11q34 58 86.5 97.5t119.5 60t142 20.5q132 0 220.5 -42t133 -130t44.5 -228v-714h-164v703q0 137 -62.5 205t-191.5 68q-122 0 -194.5 -46.5t-104 -136.5t-31.5 -220v-573h-166v1556h166zM346 2029q25 -45 70 -101.5t95 -110.5
t89 -93v-22h-118q-54 35 -111 86t-111 106q-54 -55 -109.5 -105.5t-109.5 -86.5h-114v22q38 40 86.5 94t93 110t70.5 101h169z" />
    <glyph glyph-name="Hbar" unicode="&#x126;" horiz-adv-x="1510" 
d="M200 0v1077h-200v137h200v248h170v-248h768v248h170v-248h200v-137h-200v-1077h-170v689h-768v-689h-170zM370 839h768v238h-768v-238z" />
    <glyph glyph-name="hbar" unicode="&#x127;" horiz-adv-x="1256" 
d="M341 1556v-187h441v-126h-441v-189q0 -40 -2 -79.5t-7 -73.5h11q34 58 86.5 97.5t120 60.5t143.5 21q131 0 219 -42.5t132.5 -131t44.5 -228.5v-678h-164v667q0 137 -62.5 205t-191.5 68q-122 0 -194.5 -46.5t-104 -136t-31.5 -219.5v-538h-166v1243h-155v126h155v187
h166z" />
    <glyph glyph-name="Itilde" unicode="&#x128;" horiz-adv-x="572" 
d="M200 0v1462h170v-1462h-170zM-83 1611q6 60 23 107t45 80t66.5 50.5t85.5 17.5q46 0 88 -18.5t80 -42t73.5 -42t68.5 -18.5q48 0 74.5 29.5t40.5 93.5h98q-13 -117 -69 -186.5t-151 -69.5q-44 0 -85 18.5t-79 42t-74.5 42t-71.5 18.5q-49 0 -75 -29.5t-40 -92.5h-98z" />
    <glyph glyph-name="itilde" unicode="&#x129;" horiz-adv-x="517" 
d="M341 0h-166v1096h166v-1096zM-119 1244q6 60 23 107t45 80t66.5 50.5t85.5 17.5q46 0 88 -18.5t80 -42t73.5 -42t68.5 -18.5q48 0 74.5 29.5t40.5 93.5h98q-13 -117 -69 -186.5t-151 -69.5q-44 0 -85 18.5t-79 42t-74.5 42t-71.5 18.5q-49 0 -75 -29.5t-40 -92.5h-98z
" />
    <glyph glyph-name="Imacron" unicode="&#x12a;" horiz-adv-x="572" 
d="M200 0v1462h170v-1462h-170zM586 1744v-134h-599v134h599z" />
    <glyph glyph-name="imacron" unicode="&#x12b;" horiz-adv-x="517" 
d="M341 0h-166v1096h166v-1096zM557 1377v-134h-599v134h599z" />
    <glyph glyph-name="Ibreve" unicode="&#x12c;" horiz-adv-x="572" 
d="M200 0v1462h170v-1462h-170zM597 1878q-7 -81 -45.5 -141.5t-106.5 -94.5t-164 -34q-147 0 -222.5 73t-83.5 197h104q6 -56 31 -85t69 -39.5t106 -10.5q55 0 99 11.5t72 41t35 82.5h106z" />
    <glyph glyph-name="ibreve" unicode="&#x12d;" horiz-adv-x="517" 
d="M341 0h-166v1096h166v-1096zM577 1511q-7 -81 -45.5 -141.5t-106.5 -94.5t-164 -34q-147 0 -222.5 73t-83.5 197h104q6 -56 31 -85t69 -39.5t106 -10.5q55 0 99 11.5t72 41t35 82.5h106z" />
    <glyph glyph-name="Iogonek" unicode="&#x12e;" horiz-adv-x="572" 
d="M200 0v1462h170v-1462h-170zM225 -241q0 -47 25 -71.5t71 -24.5q33 0 57 4.5t41 8.5v-108q-28 -7 -57 -12.5t-68 -5.5q-105 0 -155.5 50t-50.5 140q0 58 29 112.5t73 100.5t88 77l92 -30q-70 -64 -107.5 -120t-37.5 -121z" />
    <glyph glyph-name="iogonek" unicode="&#x12f;" horiz-adv-x="517" 
d="M341 1096v-1096h-166v1096h166zM260 1506q41 0 70.5 -26.5t29.5 -82.5q0 -55 -29.5 -82t-70.5 -27q-43 0 -71.5 27t-28.5 82q0 56 28.5 82.5t71.5 26.5zM186 -241q0 -47 25 -71.5t71 -24.5q33 0 57 4.5t41 8.5v-108q-28 -7 -57 -12.5t-68 -5.5q-105 0 -155.5 50
t-50.5 140q0 58 29 112.5t73 100.5t88 77l92 -30q-70 -64 -107.5 -120t-37.5 -121z" />
    <glyph glyph-name="Idotaccent" unicode="&#x130;" horiz-adv-x="572" 
d="M200 0v1462h170v-1462h-170zM289 1873q41 0 70.5 -26.5t29.5 -82.5q0 -55 -29.5 -82t-70.5 -27q-43 0 -71.5 27t-28.5 82q0 56 28.5 82.5t71.5 26.5z" />
    <glyph glyph-name="IJ" unicode="&#x132;" horiz-adv-x="1122" 
d="M200 0v1462h170v-1462h-170zM561 -385q-50 0 -88 7t-65 19v145q32 -10 69 -15.5t80 -5.5q56 0 103 22t75 75t28 146v1454h171v-1441q0 -137 -45.5 -227t-129 -134.5t-198.5 -44.5z" />
    <glyph glyph-name="ij" unicode="&#x133;" horiz-adv-x="1034" 
d="M341 1096v-1096h-166v1096h166zM260 1506q41 0 70.5 -26.5t29.5 -82.5q0 -55 -29.5 -82t-70.5 -27q-43 0 -71.5 27t-28.5 82q0 56 28.5 82.5t71.5 26.5zM560 -492q-51 0 -89 7.5t-66 17.5v135q31 -10 63 -15.5t72 -5.5q68 0 110 38t42 138v1273h166v-1269
q0 -100 -32 -171.5t-98 -109.5t-168 -38zM677 1397q0 56 28.5 82.5t71.5 26.5q41 0 70.5 -26.5t29.5 -82.5q0 -55 -29.5 -82t-70.5 -27q-43 0 -71.5 27t-28.5 82z" />
    <glyph glyph-name="Jcircumflex" unicode="&#x134;" horiz-adv-x="550" 
d="M-11 -385q-50 0 -88 7t-65 19v145q32 -10 69 -15.5t80 -5.5q56 0 103 22t75 75t28 146v1454h171v-1441q0 -137 -45.5 -227t-129 -134.5t-198.5 -44.5zM363 1935q25 -45 70 -101.5t95 -110.5t89 -93v-22h-118q-54 35 -111 86t-111 106q-54 -55 -109.5 -105.5t-109.5 -86.5
h-114v22q38 40 86.5 94t93 110t70.5 101h169z" />
    <glyph glyph-name="jcircumflex" unicode="&#x135;" horiz-adv-x="517" 
d="M43 -492q-51 0 -89 7.5t-66 17.5v135q31 -10 63 -15.5t72 -5.5q68 0 110 38t42 138v1273h166v-1269q0 -100 -32 -171.5t-98 -109.5t-168 -38zM344 1568q25 -45 70 -101.5t95 -110.5t89 -93v-22h-118q-54 35 -111 86t-111 106q-54 -55 -109.5 -105.5t-109.5 -86.5h-114v22
q38 40 86.5 94t93 110t70.5 101h169z" />
    <glyph glyph-name="uni0136" unicode="&#x136;" horiz-adv-x="1254" 
d="M1254 0h-201l-527 711l-156 -140v-571h-170v1462h170v-729q57 65 117 129.5t119 130.5l427 469h199l-582 -634zM793 -125v-17q-10 -39 -34 -95t-56.5 -113.5t-68.5 -102.5h-91v24q15 34 32.5 88.5t32.5 113t20 102.5h165z" />
    <glyph glyph-name="uni0137" unicode="&#x137;" horiz-adv-x="1076" 
d="M340 1556v-808q0 -40 -3 -97.5t-5 -101.5h7q21 26 61.5 77t68.5 82l364 388h195l-441 -468l473 -628h-200l-387 519l-133 -122v-397h-165v1556h165zM665 -125v-17q-10 -39 -34 -95t-56.5 -113.5t-68.5 -102.5h-91v24q15 34 32.5 88.5t32.5 113t20 102.5h165z" />
    <glyph glyph-name="kgreenlandic" unicode="&#x138;" horiz-adv-x="1076" 
d="M1026 1096l-415 -484l449 -612h-198l-368 505l-143 -124v-381h-176v1096h176v-286q0 -82 -3.5 -161.5t-8.5 -126.5h4q20 27 42.5 54.5t41.5 52.5l398 467h201z" />
    <glyph glyph-name="Lacute" unicode="&#x139;" horiz-adv-x="1069" 
d="M200 0v1462h170v-1310h649v-152h-819zM572 1936v-20q-20 -29 -54.5 -69.5t-76.5 -85t-84.5 -84.5t-78.5 -69h-111v24q32 38 70 91.5t74 110t60 102.5h201z" />
    <glyph glyph-name="lacute" unicode="&#x13a;" horiz-adv-x="517" 
d="M342 0h-167v1556h167v-1556zM548 2030v-20q-20 -29 -54.5 -69.5t-76.5 -85t-84.5 -84.5t-78.5 -69h-111v24q32 38 70 91.5t74 110t60 102.5h201z" />
    <glyph glyph-name="uni013B" unicode="&#x13b;" horiz-adv-x="1069" 
d="M200 0v1462h170v-1310h649v-152h-819zM734 -125v-17q-10 -39 -34 -95t-56.5 -113.5t-68.5 -102.5h-91v24q15 34 32.5 88.5t32.5 113t20 102.5h165z" />
    <glyph glyph-name="uni013C" unicode="&#x13c;" horiz-adv-x="517" 
d="M342 0h-167v1556h167v-1556zM381 -125v-17q-10 -39 -34 -95t-56.5 -113.5t-68.5 -102.5h-91v24q15 34 32.5 88.5t32.5 113t20 102.5h165z" />
    <glyph glyph-name="Lcaron" unicode="&#x13d;" horiz-adv-x="1069" 
d="M200 0v1462h170v-1310h649v-152h-819zM1016 1462v-17q-9 -39 -32 -94.5t-52.5 -112.5t-60.5 -103h-91v23q11 29 21.5 67t20.5 80.5t17.5 83t11.5 73.5h165z" />
    <glyph glyph-name="lcaron" unicode="&#x13e;" horiz-adv-x="517" 
d="M342 0h-167v1556h167v-1556zM665 1556v-17q-9 -39 -32 -94.5t-52.5 -112.5t-60.5 -103h-91v23q11 29 21.5 67t20.5 80.5t17.5 83t11.5 73.5h165z" />
    <glyph glyph-name="Ldot" unicode="&#x13f;" horiz-adv-x="1069" 
d="M200 0v1462h170v-1310h649v-152h-819zM778 848q41 0 70.5 -26.5t29.5 -82.5q0 -55 -29.5 -82t-70.5 -27q-43 0 -71.5 27t-28.5 82q0 56 28.5 82.5t71.5 26.5z" />
    <glyph glyph-name="ldot" unicode="&#x140;" horiz-adv-x="535" 
d="M342 0h-167v1556h167v-1556zM526 888q41 0 70.5 -26.5t29.5 -82.5q0 -55 -29.5 -82t-70.5 -27q-43 0 -71.5 27t-28.5 82q0 56 28.5 82.5t71.5 26.5z" />
    <glyph glyph-name="Lslash" unicode="&#x141;" horiz-adv-x="1069" 
d="M200 0v514l-107 -62l-67 113l174 106v791h170v-691l289 172l68 -120l-357 -209v-462h649v-152h-819z" />
    <glyph glyph-name="lslash" unicode="&#x142;" horiz-adv-x="517" 
d="M164 0v596l-110 -69l-68 112l178 115v802h166v-695l135 93l70 -112l-205 -139v-703h-166z" />
    <glyph glyph-name="Nacute" unicode="&#x143;" horiz-adv-x="1542" 
d="M1343 0h-196l-797 1228h-8q3 -49 7 -111.5t6.5 -133t2.5 -143.5v-840h-158v1462h195l794 -1224h7q-2 35 -5 99.5t-5.5 139t-2.5 138.5v847h160v-1462zM1061 1936v-20q-20 -29 -54.5 -69.5t-76.5 -85t-84.5 -84.5t-78.5 -69h-111v24q32 38 70 91.5t74 110t60 102.5h201z
" />
    <glyph glyph-name="nacute" unicode="&#x144;" horiz-adv-x="1256" 
d="M694 1116q195 0 295 -95.5t100 -306.5v-714h-164v703q0 137 -62.5 205t-191.5 68q-182 0 -256 -103t-74 -299v-574h-166v1096h134l25 -158h9q35 58 89 97.5t121 60t141 20.5zM921 1569v-20q-20 -29 -54.5 -69.5t-76.5 -85t-84.5 -84.5t-78.5 -69h-111v24q32 38 70 91.5
t74 110t60 102.5h201z" />
    <glyph glyph-name="uni0145" unicode="&#x145;" horiz-adv-x="1542" 
d="M1343 0h-196l-797 1228h-8q3 -49 7 -111.5t6.5 -133t2.5 -143.5v-840h-158v1462h195l794 -1224h7q-2 35 -5 99.5t-5.5 139t-2.5 138.5v847h160v-1462zM894 -125v-17q-10 -39 -34 -95t-56.5 -113.5t-68.5 -102.5h-91v24q15 34 32.5 88.5t32.5 113t20 102.5h165z" />
    <glyph glyph-name="uni0146" unicode="&#x146;" horiz-adv-x="1256" 
d="M694 1116q195 0 295 -95.5t100 -306.5v-714h-164v703q0 137 -62.5 205t-191.5 68q-182 0 -256 -103t-74 -299v-574h-166v1096h134l25 -158h9q35 58 89 97.5t121 60t141 20.5zM751 -125v-17q-10 -39 -34 -95t-56.5 -113.5t-68.5 -102.5h-91v24q15 34 32.5 88.5t32.5 113
t20 102.5h165z" />
    <glyph glyph-name="Ncaron" unicode="&#x147;" horiz-adv-x="1542" 
d="M1343 0h-196l-797 1228h-8q3 -49 7 -111.5t6.5 -133t2.5 -143.5v-840h-158v1462h195l794 -1224h7q-2 35 -5 99.5t-5.5 139t-2.5 138.5v847h160v-1462zM685 1608q-26 46 -71 101t-93.5 108.5t-85.5 92.5v25h114q54 -37 111.5 -88.5t107.5 -107.5q54 56 111 107.5t111 88.5
h118v-25q-39 -39 -89 -92.5t-95 -108.5t-70 -101h-169z" />
    <glyph glyph-name="ncaron" unicode="&#x148;" horiz-adv-x="1256" 
d="M694 1116q195 0 295 -95.5t100 -306.5v-714h-164v703q0 137 -62.5 205t-191.5 68q-182 0 -256 -103t-74 -299v-574h-166v1096h134l25 -158h9q35 58 89 97.5t121 60t141 20.5zM545 1241q-26 46 -71 101t-93.5 108.5t-85.5 92.5v25h114q54 -37 111.5 -88.5t107.5 -107.5
q54 56 111 107.5t111 88.5h118v-25q-39 -39 -89 -92.5t-95 -108.5t-70 -101h-169z" />
    <glyph glyph-name="napostrophe" unicode="&#x149;" horiz-adv-x="1385" 
d="M823 1116q195 0 295 -95.5t100 -306.5v-714h-164v703q0 137 -62.5 205t-191.5 68q-182 0 -256 -103t-74 -299v-574h-166v1096h134l25 -158h9q35 58 89 97.5t121 60t141 20.5zM282 1462l15 -22q-18 -73 -46 -156.5t-61 -166.5t-66 -156h-122q15 57 30.5 122t29.5 132
t25.5 130t19.5 117h175z" />
    <glyph glyph-name="Eng" unicode="&#x14a;" horiz-adv-x="1542" 
d="M966 -385q-50 0 -89.5 7t-67.5 20v143q32 -9 72 -14.5t85 -5.5q56 0 105 21t80.5 73t31.5 143l-833 1226h-8q3 -41 7 -110t6.5 -148t2.5 -151v-819h-158v1462h195l794 -1189h7q-3 45 -6 110.5t-5 140.5t-2 147v791h160v-1451q0 -134 -46 -222t-130.5 -131t-200.5 -43z
" />
    <glyph glyph-name="eng" unicode="&#x14b;" horiz-adv-x="1256" 
d="M805 -492q-49 0 -83 7.5t-60 17.5v135q27 -10 56.5 -15.5t65.5 -5.5q62 0 101.5 38t39.5 138v882q0 137 -62 204t-190 67q-121 0 -194 -46t-105.5 -135t-32.5 -219v-576h-166v1096h134l27 -158h9q35 58 87.5 97.5t119 60t141.5 20.5q133 0 221 -42t132.5 -130t44.5 -228
v-889q0 -100 -31.5 -171.5t-94.5 -109.5t-160 -38z" />
    <glyph glyph-name="Omacron" unicode="&#x14c;" horiz-adv-x="1593" 
d="M1468 733q0 -169 -43 -307.5t-127.5 -238t-209.5 -153.5t-290 -54q-170 0 -296.5 54t-210 154t-125 239t-41.5 308q0 224 74 393t224.5 263t377.5 94q217 0 365.5 -93t225 -261.5t76.5 -397.5zM304 733q0 -186 53 -322t162.5 -210t278.5 -74q170 0 278.5 74t160.5 210
t52 322q0 283 -118.5 442.5t-369.5 159.5q-170 0 -280 -73t-163.5 -207.5t-53.5 -321.5zM1096 1744v-134h-599v134h599z" />
    <glyph glyph-name="omacron" unicode="&#x14d;" horiz-adv-x="1232" 
d="M1120 550q0 -135 -35 -241t-101 -179t-159.5 -111.5t-211.5 -38.5q-110 0 -201.5 38.5t-158 111.5t-103 179t-36.5 241q0 180 61 306.5t174.5 193t270.5 66.5q150 0 262.5 -67t175 -193.5t62.5 -305.5zM286 550q0 -132 35 -229t108 -150t188 -53q114 0 187.5 53
t108.5 150t35 229q0 131 -35 226.5t-108 147.5t-189 52q-171 0 -250.5 -113t-79.5 -313zM915 1377v-134h-599v134h599z" />
    <glyph glyph-name="Obreve" unicode="&#x14e;" horiz-adv-x="1593" 
d="M1468 733q0 -169 -43 -307.5t-127.5 -238t-209.5 -153.5t-290 -54q-170 0 -296.5 54t-210 154t-125 239t-41.5 308q0 224 74 393t224.5 263t377.5 94q217 0 365.5 -93t225 -261.5t76.5 -397.5zM304 733q0 -186 53 -322t162.5 -210t278.5 -74q170 0 278.5 74t160.5 210
t52 322q0 283 -118.5 442.5t-369.5 159.5q-170 0 -280 -73t-163.5 -207.5t-53.5 -321.5zM1116 1878q-7 -81 -45.5 -141.5t-106.5 -94.5t-164 -34q-147 0 -222.5 73t-83.5 197h104q6 -56 31 -85t69 -39.5t106 -10.5q55 0 99 11.5t72 41t35 82.5h106z" />
    <glyph glyph-name="obreve" unicode="&#x14f;" horiz-adv-x="1232" 
d="M1120 550q0 -135 -35 -241t-101 -179t-159.5 -111.5t-211.5 -38.5q-110 0 -201.5 38.5t-158 111.5t-103 179t-36.5 241q0 180 61 306.5t174.5 193t270.5 66.5q150 0 262.5 -67t175 -193.5t62.5 -305.5zM286 550q0 -132 35 -229t108 -150t188 -53q114 0 187.5 53
t108.5 150t35 229q0 131 -35 226.5t-108 147.5t-189 52q-171 0 -250.5 -113t-79.5 -313zM935 1511q-7 -81 -45.5 -141.5t-106.5 -94.5t-164 -34q-147 0 -222.5 73t-83.5 197h104q6 -56 31 -85t69 -39.5t106 -10.5q55 0 99 11.5t72 41t35 82.5h106z" />
    <glyph glyph-name="Ohungarumlaut" unicode="&#x150;" horiz-adv-x="1593" 
d="M1468 733q0 -169 -43 -307.5t-127.5 -238t-209.5 -153.5t-290 -54q-170 0 -296.5 54t-210 154t-125 239t-41.5 308q0 224 74 393t224.5 263t377.5 94q217 0 365.5 -93t225 -261.5t76.5 -397.5zM304 733q0 -186 53 -322t162.5 -210t278.5 -74q170 0 278.5 74t160.5 210
t52 322q0 283 -118.5 442.5t-369.5 159.5q-170 0 -280 -73t-163.5 -207.5t-53.5 -321.5zM1270 1936v-20q-17 -28 -48 -68.5t-69.5 -85t-78 -85t-73.5 -69.5h-96v24q30 39 64 92.5t66 109.5t53 102h182zM913 1936v-20q-17 -28 -48 -68.5t-69.5 -85t-78 -85t-73.5 -69.5h-96
v24q30 39 63.5 92.5t65.5 109.5t54 102h182z" />
    <glyph glyph-name="ohungarumlaut" unicode="&#x151;" horiz-adv-x="1232" 
d="M1120 550q0 -135 -35 -241t-101 -179t-159.5 -111.5t-211.5 -38.5q-110 0 -201.5 38.5t-158 111.5t-103 179t-36.5 241q0 180 61 306.5t174.5 193t270.5 66.5q150 0 262.5 -67t175 -193.5t62.5 -305.5zM286 550q0 -132 35 -229t108 -150t188 -53q114 0 187.5 53
t108.5 150t35 229q0 131 -35 226.5t-108 147.5t-189 52q-171 0 -250.5 -113t-79.5 -313zM1089 1569v-20q-17 -28 -48 -68.5t-69.5 -85t-78 -85t-73.5 -69.5h-96v24q30 39 64 92.5t66 109.5t53 102h182zM732 1569v-20q-17 -28 -48 -68.5t-69.5 -85t-78 -85t-73.5 -69.5h-96
v24q30 39 63.5 92.5t65.5 109.5t54 102h182z" />
    <glyph glyph-name="OE" unicode="&#x152;" horiz-adv-x="1894" 
d="M789 1483q52 0 100.5 -5t93.5 -16h788v-150h-604v-473h565v-148h-565v-541h604v-150h-779q-44 -8 -93 -13t-101 -5q-227 0 -376.5 94t-223 263.5t-73.5 395.5t73.5 394t221 261t369.5 93zM804 1333q-129 0 -223.5 -41t-156 -119t-92 -189t-30.5 -251q0 -186 53.5 -321.5
t164.5 -209t281 -73.5q56 0 107 8.5t91 23.5v1142q-41 16 -90 23t-105 7z" />
    <glyph glyph-name="oe" unicode="&#x153;" horiz-adv-x="1942" 
d="M1394 1114q139 0 237 -61.5t150.5 -172.5t52.5 -260v-103h-738q4 -202 91.5 -298.5t251.5 -96.5q107 0 185.5 19t161.5 56v-146q-83 -37 -162 -54t-187 -17q-146 0 -253 61t-169 180q-60 -118 -165.5 -179.5t-245.5 -61.5q-145 0 -256 67t-173.5 194.5t-62.5 308.5
q0 179 60 305t172 192.5t266 66.5q136 0 239 -62t161 -178q38 76 94.5 129.5t129.5 82t160 28.5zM603 976q-166 0 -241.5 -108.5t-75.5 -317.5q0 -140 33.5 -236.5t104 -146t182.5 -49.5q111 0 181 49t103.5 143.5t33.5 232.5q0 142 -34 238.5t-104.5 145.5t-182.5 49z
M1393 978q-128 0 -204 -83.5t-89 -244.5h558q0 99 -28 173t-86.5 114.5t-150.5 40.5z" />
    <glyph glyph-name="Racute" unicode="&#x154;" horiz-adv-x="1264" 
d="M595 1462q180 0 297.5 -44.5t175.5 -135.5t58 -232q0 -116 -42 -193.5t-110 -125.5t-145 -74l401 -657h-198l-358 610h-304v-610h-170v1462h395zM585 1315h-215v-561h232q179 0 263.5 73t84.5 215q0 149 -89.5 211t-275.5 62zM926 1936v-20q-20 -29 -54.5 -69.5
t-76.5 -85t-84.5 -84.5t-78.5 -69h-111v24q32 38 70 91.5t74 110t60 102.5h201z" />
    <glyph glyph-name="racute" unicode="&#x155;" horiz-adv-x="837" 
d="M673 1116q33 0 69 -3.5t64 -9.5l-21 -154q-27 7 -60 11t-62 4q-66 0 -124.5 -26.5t-102.5 -76t-69 -119t-25 -154.5v-588h-167v1096h138l18 -202h7q34 61 82 111.5t111.5 80.5t141.5 30zM776 1569v-20q-20 -29 -54.5 -69.5t-76.5 -85t-84.5 -84.5t-78.5 -69h-111v24
q32 38 70 91.5t74 110t60 102.5h201z" />
    <glyph glyph-name="uni0156" unicode="&#x156;" horiz-adv-x="1264" 
d="M595 1462q180 0 297.5 -44.5t175.5 -135.5t58 -232q0 -116 -42 -193.5t-110 -125.5t-145 -74l401 -657h-198l-358 610h-304v-610h-170v1462h395zM585 1315h-215v-561h232q179 0 263.5 73t84.5 215q0 149 -89.5 211t-275.5 62zM789 -125v-17q-10 -39 -34 -95t-56.5 -113.5
t-68.5 -102.5h-91v24q15 34 32.5 88.5t32.5 113t20 102.5h165z" />
    <glyph glyph-name="uni0157" unicode="&#x157;" horiz-adv-x="837" 
d="M673 1116q33 0 69 -3.5t64 -9.5l-21 -154q-27 7 -60 11t-62 4q-66 0 -124.5 -26.5t-102.5 -76t-69 -119t-25 -154.5v-588h-167v1096h138l18 -202h7q34 61 82 111.5t111.5 80.5t141.5 30zM375 -125v-17q-10 -39 -34 -95t-56.5 -113.5t-68.5 -102.5h-91v24q15 34 32.5 88.5
t32.5 113t20 102.5h165z" />
    <glyph glyph-name="Rcaron" unicode="&#x158;" horiz-adv-x="1264" 
d="M595 1462q180 0 297.5 -44.5t175.5 -135.5t58 -232q0 -116 -42 -193.5t-110 -125.5t-145 -74l401 -657h-198l-358 610h-304v-610h-170v1462h395zM585 1315h-215v-561h232q179 0 263.5 73t84.5 215q0 149 -89.5 211t-275.5 62zM550 1608q-26 46 -71 101t-93.5 108.5
t-85.5 92.5v25h114q54 -37 111.5 -88.5t107.5 -107.5q54 56 111 107.5t111 88.5h118v-25q-39 -39 -89 -92.5t-95 -108.5t-70 -101h-169z" />
    <glyph glyph-name="rcaron" unicode="&#x159;" horiz-adv-x="837" 
d="M673 1116q33 0 69 -3.5t64 -9.5l-21 -154q-27 7 -60 11t-62 4q-66 0 -124.5 -26.5t-102.5 -76t-69 -119t-25 -154.5v-588h-167v1096h138l18 -202h7q34 61 82 111.5t111.5 80.5t141.5 30zM399 1241q-26 46 -71 101t-93.5 108.5t-85.5 92.5v25h114q54 -37 111.5 -88.5
t107.5 -107.5q54 56 111 107.5t111 88.5h118v-25q-39 -39 -89 -92.5t-95 -108.5t-70 -101h-169z" />
    <glyph glyph-name="Sacute" unicode="&#x15a;" horiz-adv-x="1123" 
d="M1025 389q0 -130 -64.5 -221.5t-180.5 -139.5t-273 -48q-83 0 -157 8t-136 23t-109 37v163q75 -31 183 -57.5t226 -26.5q110 0 186 29.5t115.5 85t39.5 133.5q0 75 -33 125.5t-109.5 92t-208.5 88.5q-93 33 -164 72.5t-119 89.5t-72.5 116t-24.5 151q0 117 59.5 200.5
t165 128t242.5 44.5q117 0 216.5 -22t182.5 -59l-53 -146q-79 33 -167.5 55t-182.5 22t-158.5 -27.5t-98.5 -77.5t-34 -119q0 -77 32.5 -128t104 -90.5t189.5 -82.5q129 -47 219 -99.5t137 -128t47 -191.5zM873 1936v-20q-20 -29 -54.5 -69.5t-76.5 -85t-84.5 -84.5
t-78.5 -69h-111v24q32 38 70 91.5t74 110t60 102.5h201z" />
    <glyph glyph-name="sacute" unicode="&#x15b;" horiz-adv-x="976" 
d="M884 300q0 -105 -52.5 -176.5t-150 -107.5t-232.5 -36q-115 0 -199 18t-147 51v153q67 -33 160 -60t190 -27q142 0 206 46t64 125q0 45 -25.5 79.5t-85.5 67t-166 71.5q-105 40 -181.5 79.5t-118 96.5t-41.5 148q0 139 112.5 213.5t295.5 74.5q99 0 185.5 -19.5
t161.5 -52.5l-56 -133q-68 29 -145 49t-157 20q-115 0 -176.5 -38t-61.5 -104q0 -51 28.5 -84t91.5 -62t166 -68q103 -38 178 -78.5t115.5 -98t40.5 -147.5zM779 1569v-20q-20 -29 -54.5 -69.5t-76.5 -85t-84.5 -84.5t-78.5 -69h-111v24q32 38 70 91.5t74 110t60 102.5h201z
" />
    <glyph glyph-name="Scircumflex" unicode="&#x15c;" horiz-adv-x="1123" 
d="M1025 389q0 -130 -64.5 -221.5t-180.5 -139.5t-273 -48q-83 0 -157 8t-136 23t-109 37v163q75 -31 183 -57.5t226 -26.5q110 0 186 29.5t115.5 85t39.5 133.5q0 75 -33 125.5t-109.5 92t-208.5 88.5q-93 33 -164 72.5t-119 89.5t-72.5 116t-24.5 151q0 117 59.5 200.5
t165 128t242.5 44.5q117 0 216.5 -22t182.5 -59l-53 -146q-79 33 -167.5 55t-182.5 22t-158.5 -27.5t-98.5 -77.5t-34 -119q0 -77 32.5 -128t104 -90.5t189.5 -82.5q129 -47 219 -99.5t137 -128t47 -191.5zM670 1935q25 -45 70 -101.5t95 -110.5t89 -93v-22h-118
q-54 35 -111 86t-111 106q-54 -55 -109.5 -105.5t-109.5 -86.5h-114v22q38 40 86.5 94t93 110t70.5 101h169z" />
    <glyph glyph-name="scircumflex" unicode="&#x15d;" horiz-adv-x="976" 
d="M884 300q0 -105 -52.5 -176.5t-150 -107.5t-232.5 -36q-115 0 -199 18t-147 51v153q67 -33 160 -60t190 -27q142 0 206 46t64 125q0 45 -25.5 79.5t-85.5 67t-166 71.5q-105 40 -181.5 79.5t-118 96.5t-41.5 148q0 139 112.5 213.5t295.5 74.5q99 0 185.5 -19.5
t161.5 -52.5l-56 -133q-68 29 -145 49t-157 20q-115 0 -176.5 -38t-61.5 -104q0 -51 28.5 -84t91.5 -62t166 -68q103 -38 178 -78.5t115.5 -98t40.5 -147.5zM575 1568q25 -45 70 -101.5t95 -110.5t89 -93v-22h-118q-54 35 -111 86t-111 106q-54 -55 -109.5 -105.5
t-109.5 -86.5h-114v22q38 40 86.5 94t93 110t70.5 101h169z" />
    <glyph glyph-name="Scedilla" unicode="&#x15e;" horiz-adv-x="1123" 
d="M1025 389q0 -130 -64.5 -221.5t-180.5 -139.5t-273 -48q-83 0 -157 8t-136 23t-109 37v163q75 -31 183 -57.5t226 -26.5q110 0 186 29.5t115.5 85t39.5 133.5q0 75 -33 125.5t-109.5 92t-208.5 88.5q-93 33 -164 72.5t-119 89.5t-72.5 116t-24.5 151q0 117 59.5 200.5
t165 128t242.5 44.5q117 0 216.5 -22t182.5 -59l-53 -146q-79 33 -167.5 55t-182.5 22t-158.5 -27.5t-98.5 -77.5t-34 -119q0 -77 32.5 -128t104 -90.5t189.5 -82.5q129 -47 219 -99.5t137 -128t47 -191.5zM730 -286q0 -97 -75 -151.5t-220 -54.5q-31 0 -59 3.5t-45 7.5v105
q19 -4 49 -7t60 -3q75 0 115 22t40 74q0 55 -53.5 80t-136.5 34l89 176h111l-54 -112q50 -10 90.5 -31t64.5 -56t24 -87z" />
    <glyph glyph-name="scedilla" unicode="&#x15f;" horiz-adv-x="976" 
d="M884 300q0 -105 -52.5 -176.5t-150 -107.5t-232.5 -36q-115 0 -199 18t-147 51v153q67 -33 160 -60t190 -27q142 0 206 46t64 125q0 45 -25.5 79.5t-85.5 67t-166 71.5q-105 40 -181.5 79.5t-118 96.5t-41.5 148q0 139 112.5 213.5t295.5 74.5q99 0 185.5 -19.5
t161.5 -52.5l-56 -133q-68 29 -145 49t-157 20q-115 0 -176.5 -38t-61.5 -104q0 -51 28.5 -84t91.5 -62t166 -68q103 -38 178 -78.5t115.5 -98t40.5 -147.5zM690 -286q0 -97 -75 -151.5t-220 -54.5q-31 0 -59 3.5t-45 7.5v105q19 -4 49 -7t60 -3q75 0 115 22t40 74
q0 55 -53.5 80t-136.5 34l89 176h111l-54 -112q50 -10 90.5 -31t64.5 -56t24 -87z" />
    <glyph glyph-name="Scaron" unicode="&#x160;" horiz-adv-x="1123" 
d="M1025 389q0 -130 -64.5 -221.5t-180.5 -139.5t-273 -48q-83 0 -157 8t-136 23t-109 37v163q75 -31 183 -57.5t226 -26.5q110 0 186 29.5t115.5 85t39.5 133.5q0 75 -33 125.5t-109.5 92t-208.5 88.5q-93 33 -164 72.5t-119 89.5t-72.5 116t-24.5 151q0 117 59.5 200.5
t165 128t242.5 44.5q117 0 216.5 -22t182.5 -59l-53 -146q-79 33 -167.5 55t-182.5 22t-158.5 -27.5t-98.5 -77.5t-34 -119q0 -77 32.5 -128t104 -90.5t189.5 -82.5q129 -47 219 -99.5t137 -128t47 -191.5zM497 1608q-26 46 -71 101t-93.5 108.5t-85.5 92.5v25h114
q54 -37 111.5 -88.5t107.5 -107.5q54 56 111 107.5t111 88.5h118v-25q-39 -39 -89 -92.5t-95 -108.5t-70 -101h-169z" />
    <glyph glyph-name="scaron" unicode="&#x161;" horiz-adv-x="976" 
d="M884 300q0 -105 -52.5 -176.5t-150 -107.5t-232.5 -36q-115 0 -199 18t-147 51v153q67 -33 160 -60t190 -27q142 0 206 46t64 125q0 45 -25.5 79.5t-85.5 67t-166 71.5q-105 40 -181.5 79.5t-118 96.5t-41.5 148q0 139 112.5 213.5t295.5 74.5q99 0 185.5 -19.5
t161.5 -52.5l-56 -133q-68 29 -145 49t-157 20q-115 0 -176.5 -38t-61.5 -104q0 -51 28.5 -84t91.5 -62t166 -68q103 -38 178 -78.5t115.5 -98t40.5 -147.5zM402 1241q-26 46 -71 101t-93.5 108.5t-85.5 92.5v25h114q54 -37 111.5 -88.5t107.5 -107.5q54 56 111 107.5
t111 88.5h118v-25q-39 -39 -89 -92.5t-95 -108.5t-70 -101h-169z" />
    <glyph glyph-name="uni021A" unicode="&#x21a;" horiz-adv-x="1128" 
d="M649 0h-171v1312h-460v150h1089v-150h-458v-1312zM686 -125v-17q-10 -39 -34 -95t-56.5 -113.5t-68.5 -102.5h-91v24q15 34 32.5 88.5t32.5 113t20 102.5h165z" />
    <glyph glyph-name="uni021B" unicode="&#x21b;" horiz-adv-x="730" 
d="M529 116q41 0 84 7t70 17v-129q-29 -13 -80.5 -22t-100.5 -9q-87 0 -158 30.5t-113.5 103.5t-42.5 202v650h-156v81l157 65l66 238h100v-254h321v-130h-321v-645q0 -103 47.5 -154t126.5 -51zM555 -125v-17q-10 -39 -34 -95t-56.5 -113.5t-68.5 -102.5h-91v24
q15 34 32.5 88.5t32.5 113t20 102.5h165z" />
    <glyph glyph-name="Tcaron" unicode="&#x164;" horiz-adv-x="1128" 
d="M649 0h-171v1312h-460v150h1089v-150h-458v-1312zM477 1608q-26 46 -71 101t-93.5 108.5t-85.5 92.5v25h114q54 -37 111.5 -88.5t107.5 -107.5q54 56 111 107.5t111 88.5h118v-25q-39 -39 -89 -92.5t-95 -108.5t-70 -101h-169z" />
    <glyph glyph-name="tcaron" unicode="&#x165;" horiz-adv-x="730" 
d="M529 116q41 0 84 7t70 17v-129q-29 -13 -80.5 -22t-100.5 -9q-87 0 -158 30.5t-113.5 103.5t-42.5 202v650h-156v81l157 65l66 238h100v-254h321v-130h-321v-645q0 -103 47.5 -154t126.5 -51zM940 1556v-17q-9 -39 -32 -94.5t-52.5 -112.5t-60.5 -103h-91v23
q11 29 21.5 67t20.5 80.5t17.5 83t11.5 73.5h165z" />
    <glyph glyph-name="Tbar" unicode="&#x166;" horiz-adv-x="1128" 
d="M477 0v673h-315v140h315v497h-459v152h1089v-152h-461v-497h313v-140h-313v-673h-169z" />
    <glyph glyph-name="tbar" unicode="&#x167;" horiz-adv-x="730" 
d="M48 574v127h607v-127h-607zM529 116q41 0 84 7t70 17v-129q-29 -13 -80.5 -22t-100.5 -9q-87 0 -158 30.5t-113.5 103.5t-42.5 202v650h-156v81l157 65l66 238h100v-254h321v-130h-321v-645q0 -103 47.5 -154t126.5 -51z" />
    <glyph glyph-name="Utilde" unicode="&#x168;" horiz-adv-x="1493" 
d="M1306 1462v-946q0 -155 -62.5 -276t-188.5 -190.5t-316 -69.5q-271 0 -412.5 147t-141.5 393v942h171v-947q0 -186 98.5 -287t294.5 -101q134 0 219.5 48.5t127 136t41.5 202.5v948h169zM376 1611q6 60 23 107t45 80t66.5 50.5t85.5 17.5q46 0 88 -18.5t80 -42t73.5 -42
t68.5 -18.5q48 0 74.5 29.5t40.5 93.5h98q-13 -117 -69 -186.5t-151 -69.5q-44 0 -85 18.5t-79 42t-74.5 42t-71.5 18.5q-49 0 -75 -29.5t-40 -92.5h-98z" />
    <glyph glyph-name="utilde" unicode="&#x169;" horiz-adv-x="1256" 
d="M1080 1096v-1096h-136l-24 154h-9q-34 -57 -88 -96t-121.5 -58.5t-143.5 -19.5q-130 0 -218 42t-132.5 130t-44.5 226v718h168v-706q0 -137 62 -204.5t189 -67.5q122 0 194.5 46t104.5 135.5t32 219.5v577h167zM255 1244q6 60 23 107t45 80t66.5 50.5t85.5 17.5
q46 0 88 -18.5t80 -42t73.5 -42t68.5 -18.5q48 0 74.5 29.5t40.5 93.5h98q-13 -117 -69 -186.5t-151 -69.5q-44 0 -85 18.5t-79 42t-74.5 42t-71.5 18.5q-49 0 -75 -29.5t-40 -92.5h-98z" />
    <glyph glyph-name="Umacron" unicode="&#x16a;" horiz-adv-x="1493" 
d="M1306 1462v-946q0 -155 -62.5 -276t-188.5 -190.5t-316 -69.5q-271 0 -412.5 147t-141.5 393v942h171v-947q0 -186 98.5 -287t294.5 -101q134 0 219.5 48.5t127 136t41.5 202.5v948h169zM1046 1744v-134h-599v134h599z" />
    <glyph glyph-name="umacron" unicode="&#x16b;" horiz-adv-x="1256" 
d="M1080 1096v-1096h-136l-24 154h-9q-34 -57 -88 -96t-121.5 -58.5t-143.5 -19.5q-130 0 -218 42t-132.5 130t-44.5 226v718h168v-706q0 -137 62 -204.5t189 -67.5q122 0 194.5 46t104.5 135.5t32 219.5v577h167zM927 1377v-134h-599v134h599z" />
    <glyph glyph-name="Ubreve" unicode="&#x16c;" horiz-adv-x="1493" 
d="M1306 1462v-946q0 -155 -62.5 -276t-188.5 -190.5t-316 -69.5q-271 0 -412.5 147t-141.5 393v942h171v-947q0 -186 98.5 -287t294.5 -101q134 0 219.5 48.5t127 136t41.5 202.5v948h169zM1066 1878q-7 -81 -45.5 -141.5t-106.5 -94.5t-164 -34q-147 0 -222.5 73
t-83.5 197h104q6 -56 31 -85t69 -39.5t106 -10.5q55 0 99 11.5t72 41t35 82.5h106z" />
    <glyph glyph-name="ubreve" unicode="&#x16d;" horiz-adv-x="1256" 
d="M1080 1096v-1096h-136l-24 154h-9q-34 -57 -88 -96t-121.5 -58.5t-143.5 -19.5q-130 0 -218 42t-132.5 130t-44.5 226v718h168v-706q0 -137 62 -204.5t189 -67.5q122 0 194.5 46t104.5 135.5t32 219.5v577h167zM947 1511q-7 -81 -45.5 -141.5t-106.5 -94.5t-164 -34
q-147 0 -222.5 73t-83.5 197h104q6 -56 31 -85t69 -39.5t106 -10.5q55 0 99 11.5t72 41t35 82.5h106z" />
    <glyph glyph-name="Uring" unicode="&#x16e;" horiz-adv-x="1493" 
d="M1306 1462v-946q0 -155 -62.5 -276t-188.5 -190.5t-316 -69.5q-271 0 -412.5 147t-141.5 393v942h171v-947q0 -186 98.5 -287t294.5 -101q134 0 219.5 48.5t127 136t41.5 202.5v948h169zM748 1609q-97 0 -159 57t-62 159q0 100 61.5 157t159.5 57q95 0 160 -57t65 -155
q0 -103 -64 -160.5t-161 -57.5zM748 1705q53 0 86.5 32.5t33.5 87.5t-34.5 87t-85.5 32q-50 0 -84.5 -32t-34.5 -87t31 -87.5t88 -32.5z" />
    <glyph glyph-name="uring" unicode="&#x16f;" horiz-adv-x="1256" 
d="M1080 1096v-1096h-136l-24 154h-9q-34 -57 -88 -96t-121.5 -58.5t-143.5 -19.5q-130 0 -218 42t-132.5 130t-44.5 226v718h168v-706q0 -137 62 -204.5t189 -67.5q122 0 194.5 46t104.5 135.5t32 219.5v577h167zM629 1242q-97 0 -159 57t-62 159q0 100 61.5 157t159.5 57
q95 0 160 -57t65 -155q0 -103 -64 -160.5t-161 -57.5zM629 1338q53 0 86.5 32.5t33.5 87.5t-34.5 87t-85.5 32q-50 0 -84.5 -32t-34.5 -87t31 -87.5t88 -32.5z" />
    <glyph glyph-name="Uhungarumlaut" unicode="&#x170;" horiz-adv-x="1493" 
d="M1306 1462v-946q0 -155 -62.5 -276t-188.5 -190.5t-316 -69.5q-271 0 -412.5 147t-141.5 393v942h171v-947q0 -186 98.5 -287t294.5 -101q134 0 219.5 48.5t127 136t41.5 202.5v948h169zM1220 1936v-20q-17 -28 -48 -68.5t-69.5 -85t-78 -85t-73.5 -69.5h-96v24
q30 39 64 92.5t66 109.5t53 102h182zM863 1936v-20q-17 -28 -48 -68.5t-69.5 -85t-78 -85t-73.5 -69.5h-96v24q30 39 63.5 92.5t65.5 109.5t54 102h182z" />
    <glyph glyph-name="uhungarumlaut" unicode="&#x171;" horiz-adv-x="1256" 
d="M1080 1096v-1096h-136l-24 154h-9q-34 -57 -88 -96t-121.5 -58.5t-143.5 -19.5q-130 0 -218 42t-132.5 130t-44.5 226v718h168v-706q0 -137 62 -204.5t189 -67.5q122 0 194.5 46t104.5 135.5t32 219.5v577h167zM1100 1569v-20q-17 -28 -48 -68.5t-69.5 -85t-78 -85
t-73.5 -69.5h-96v24q30 39 64 92.5t66 109.5t53 102h182zM743 1569v-20q-17 -28 -48 -68.5t-69.5 -85t-78 -85t-73.5 -69.5h-96v24q30 39 63.5 92.5t65.5 109.5t54 102h182z" />
    <glyph glyph-name="Uogonek" unicode="&#x172;" horiz-adv-x="1493" 
d="M946 -222q0 -62 25.5 -88.5t70.5 -26.5q33 0 57 4.5t41 8.5v-108q-28 -7 -56.5 -12.5t-67.5 -5.5q-106 0 -156 52.5t-50 155.5q0 65 32.5 128t79.5 115t90 83l118 18q-60 -67 -101 -121.5t-62 -103t-21 -99.5zM1306 1462v-946q0 -155 -62.5 -276t-188.5 -190.5
t-316 -69.5q-271 0 -412.5 147t-141.5 393v942h171v-947q0 -186 98.5 -287t294.5 -101q134 0 219.5 48.5t127 136t41.5 202.5v948h169z" />
    <glyph glyph-name="uogonek" unicode="&#x173;" horiz-adv-x="1256" 
d="M1080 1096v-1096h-136l-24 154h-9q-34 -57 -88 -96t-121.5 -58.5t-143.5 -19.5q-130 0 -218 42t-132.5 130t-44.5 226v718h168v-706q0 -137 62 -204.5t189 -67.5q122 0 194.5 46t104.5 135.5t32 219.5v577h167zM904 -241q0 -47 25 -71.5t71 -24.5q33 0 57 4.5t41 8.5
v-108q-28 -7 -57 -12.5t-68 -5.5q-105 0 -155.5 50t-50.5 140q0 58 29 112.5t73 100.5t88 77l92 -30q-70 -64 -107.5 -120t-37.5 -121z" />
    <glyph glyph-name="Wcircumflex" unicode="&#x174;" horiz-adv-x="1891" 
d="M1861 1462l-391 -1462h-171l-290 984q-13 42 -24.5 84.5t-21.5 81t-16.5 68t-9.5 44.5q-2 -15 -7.5 -44t-14 -67t-20 -81t-24.5 -87l-282 -983h-171l-388 1462h177l235 -917q12 -46 22.5 -90.5t19 -86.5t15.5 -82t13 -78q5 39 13 81.5t17.5 86.5t21 89t24.5 90l263 907
h175l274 -914q14 -47 26 -93t21.5 -89.5t17 -83t13.5 -74.5q7 49 17 103t23.5 113t29.5 122l235 916h178zM1031 1935q25 -45 70 -101.5t95 -110.5t89 -93v-22h-118q-54 35 -111 86t-111 106q-54 -55 -109.5 -105.5t-109.5 -86.5h-114v22q38 40 86.5 94t93 110t70.5 101h169z
" />
    <glyph glyph-name="wcircumflex" unicode="&#x175;" horiz-adv-x="1587" 
d="M1067 2l-195 638q-13 41 -24.5 80.5t-21 76t-17 68t-12.5 54.5h-7q-4 -23 -11 -54.5t-16.5 -68.5t-20.5 -77.5t-25 -81.5l-204 -635h-187l-302 1096h172l158 -605q16 -60 30.5 -118.5t25 -110t15.5 -89.5h8q6 25 13.5 60t17 74.5t20.5 79t22 74.5l202 635h179l195 -634
q15 -48 29.5 -100t26.5 -100.5t17 -86.5h8q4 34 15 84t25.5 110t30.5 122l160 605h169l-303 -1096h-193zM882 1568q25 -45 70 -101.5t95 -110.5t89 -93v-22h-118q-54 35 -111 86t-111 106q-54 -55 -109.5 -105.5t-109.5 -86.5h-114v22q38 40 86.5 94t93 110t70.5 101h169z
" />
    <glyph glyph-name="Ycircumflex" unicode="&#x176;" horiz-adv-x="1145" 
d="M573 729l389 733h183l-487 -895v-567h-170v559l-488 903h186zM659 1935q25 -45 70 -101.5t95 -110.5t89 -93v-22h-118q-54 35 -111 86t-111 106q-54 -55 -109.5 -105.5t-109.5 -86.5h-114v22q38 40 86.5 94t93 110t70.5 101h169z" />
    <glyph glyph-name="ycircumflex" unicode="&#x177;" horiz-adv-x="1026" 
d="M2 1096h178l242 -636q21 -56 39 -107.5t32 -98.5t22 -91h7q14 50 40 131.5t56 166.5l229 635h179l-477 -1257q-38 -101 -88.5 -176t-122.5 -115.5t-174 -40.5q-47 0 -83 5.5t-62 12.5v133q22 -5 53.5 -9t65.5 -4q62 0 107.5 23.5t78.5 68.5t57 107l60 154zM599 1568
q25 -45 70 -101.5t95 -110.5t89 -93v-22h-118q-54 35 -111 86t-111 106q-54 -55 -109.5 -105.5t-109.5 -86.5h-114v22q38 40 86.5 94t93 110t70.5 101h169z" />
    <glyph glyph-name="Ydieresis" unicode="&#x178;" horiz-adv-x="1145" 
d="M573 729l389 733h183l-487 -895v-567h-170v559l-488 903h186zM290 1761q0 50 26 73t64 23q39 0 65.5 -23t26.5 -73q0 -49 -26.5 -73.5t-65.5 -24.5q-38 0 -64 24.5t-26 73.5zM674 1761q0 50 26 73t63 23q38 0 65 -23t27 -73q0 -49 -27 -73.5t-65 -24.5q-37 0 -63 24.5
t-26 73.5z" />
    <glyph glyph-name="Zacute" unicode="&#x179;" horiz-adv-x="1172" 
d="M1093 0h-1015v128l787 1182h-760v152h967v-128l-788 -1182h809v-152zM884 1936v-20q-20 -29 -54.5 -69.5t-76.5 -85t-84.5 -84.5t-78.5 -69h-111v24q32 38 70 91.5t74 110t60 102.5h201z" />
    <glyph glyph-name="zacute" unicode="&#x17a;" horiz-adv-x="960" 
d="M879 0h-799v110l601 856h-563v130h748v-123l-593 -844h606v-129zM769 1569v-20q-20 -29 -54.5 -69.5t-76.5 -85t-84.5 -84.5t-78.5 -69h-111v24q32 38 70 91.5t74 110t60 102.5h201z" />
    <glyph glyph-name="Zdotaccent" unicode="&#x17b;" horiz-adv-x="1172" 
d="M1093 0h-1015v128l787 1182h-760v152h967v-128l-788 -1182h809v-152zM597 1873q41 0 70.5 -26.5t29.5 -82.5q0 -55 -29.5 -82t-70.5 -27q-43 0 -71.5 27t-28.5 82q0 56 28.5 82.5t71.5 26.5z" />
    <glyph glyph-name="zdotaccent" unicode="&#x17c;" horiz-adv-x="960" 
d="M879 0h-799v110l601 856h-563v130h748v-123l-593 -844h606v-129zM483 1506q41 0 70.5 -26.5t29.5 -82.5q0 -55 -29.5 -82t-70.5 -27q-43 0 -71.5 27t-28.5 82q0 56 28.5 82.5t71.5 26.5z" />
    <glyph glyph-name="Zcaron" unicode="&#x17d;" horiz-adv-x="1172" 
d="M1093 0h-1015v128l787 1182h-760v152h967v-128l-788 -1182h809v-152zM507 1608q-26 46 -71 101t-93.5 108.5t-85.5 92.5v25h114q54 -37 111.5 -88.5t107.5 -107.5q54 56 111 107.5t111 88.5h118v-25q-39 -39 -89 -92.5t-95 -108.5t-70 -101h-169z" />
    <glyph glyph-name="zcaron" unicode="&#x17e;" horiz-adv-x="960" 
d="M879 0h-799v110l601 856h-563v130h748v-123l-593 -844h606v-129zM393 1241q-26 46 -71 101t-93.5 108.5t-85.5 92.5v25h114q54 -37 111.5 -88.5t107.5 -107.5q54 56 111 107.5t111 88.5h118v-25q-39 -39 -89 -92.5t-95 -108.5t-70 -101h-169z" />
    <glyph glyph-name="longs" unicode="&#x17f;" horiz-adv-x="661" 
d="M530 1428q-89 0 -138.5 -56.5t-49.5 -188.5v-1183h-167v1184q0 137 44 221.5t124 123t189 38.5q61 0 109.5 -11.5t87.5 -25.5l-42 -132q-32 11 -73.5 20.5t-83.5 9.5z" />
    <glyph glyph-name="florin" unicode="&#x192;" horiz-adv-x="1171" 
d="M833 1483q62 0 114 -13.5t91 -27.5l-41 -130q-34 11 -75 21.5t-85 10.5q-93 0 -136.5 -51t-43.5 -182v-146h277v-130h-273v-974q0 -127 -38.5 -205t-112.5 -113t-180 -35q-40 0 -76.5 6t-63.5 13v139q31 -8 63.5 -13.5t66.5 -5.5q88 0 129 47.5t41 168.5v972h-213v80
l213 56v139q0 139 39.5 220.5t116.5 117t187 35.5z" />
    <glyph glyph-name="Aringacute" unicode="&#x1fa;" horiz-adv-x="1297" 
d="M-2 0l534 1238q-50 25 -79 72.5t-29 116.5q0 101 62 158.5t159 57.5t162.5 -57t65.5 -158q0 -67 -29 -115t-79 -73l533 -1240h-177l-174 402h-607l-168 -402h-174zM400 554h497l-178 431q-10 24 -22.5 56.5t-25.5 69.5t-24 72q-8 -27 -17.5 -55t-18.5 -55t-17.5 -50.5
t-15.5 -40.5zM645 1305q54 0 87.5 32t33.5 90q0 57 -33.5 88t-87.5 31q-52 0 -86 -31t-34 -88t32 -89.5t88 -32.5zM557 1696v18q30 34 63.5 77.5t64.5 88.5t53 84h200v-16q-17 -24 -48 -57t-69 -68.5t-77.5 -69t-74.5 -57.5h-112z" />
    <glyph glyph-name="aringacute" unicode="&#x1fb;" horiz-adv-x="1138" 
d="M585 1114q196 0 291 -88t95 -281v-745h-121l-32 162h-8q-46 -60 -96 -100.5t-115.5 -61t-160.5 -20.5q-100 0 -177.5 35t-122 106t-44.5 180q0 164 130 252t396 96l189 8v67q0 142 -61 199t-172 57q-86 0 -164 -25t-148 -59l-51 126q74 38 170 65t202 27zM807 540
l-167 -7q-205 -8 -289 -67t-84 -167q0 -94 57 -139t151 -45q146 0 239 81t93 243v101zM580 1569q-52 0 -86 -32t-34 -87t31.5 -87.5t88.5 -32.5q52 0 85 32.5t33 87.5t-34 87t-84 32zM580 1664q64 0 114.5 -26t80 -73.5t29.5 -113.5q0 -102 -63.5 -159.5t-160.5 -57.5
q-98 0 -160 57t-62 159q0 100 62 157t160 57zM897 1960v-12q-23 -26 -78.5 -64.5t-119 -77t-110.5 -64.5h-120v15q30 28 64 63.5t65 72t53 67.5h246z" />
    <glyph glyph-name="AEacute" unicode="&#x1fc;" horiz-adv-x="1778" 
d="M1665 0h-764v464h-505l-222 -464h-176l687 1462h980v-150h-594v-473h555v-148h-555v-541h594v-150zM462 615h439v695h-115zM1279 1936v-20q-20 -29 -54.5 -69.5t-76.5 -85t-84.5 -84.5t-78.5 -69h-111v24q32 38 70 91.5t74 110t60 102.5h201z" />
    <glyph glyph-name="aeacute" unicode="&#x1fd;" horiz-adv-x="1766" 
d="M1235 1116q133 0 228.5 -62t146.5 -173t50 -257v-105h-709q4 -202 87 -299.5t239 -97.5q100 0 177 19t158 56v-146q-82 -37 -160.5 -54t-179.5 -17q-96 0 -175.5 27.5t-140 81t-100.5 131.5q-45 -73 -100.5 -127t-131.5 -83.5t-183 -29.5q-100 0 -178.5 35t-123.5 106
t-45 180t55.5 184.5t167 117t278.5 46.5l186 8v71q0 139 -63 195.5t-171 56.5q-81 0 -159.5 -24.5t-148.5 -59.5l-52 126q74 39 173.5 65.5t199.5 26.5q129 0 211.5 -45t121.5 -146q53 91 140 142t202 51zM777 540l-157 -7q-193 -8 -273 -67t-80 -167q0 -94 54.5 -139
t145.5 -45q90 0 160 36t110 108t40 180v101zM1233 980q-121 0 -194 -84.5t-84 -245.5h529q1 99 -26 173.5t-83 115.5t-142 41zM1185 1569v-20q-20 -29 -54.5 -69.5t-76.5 -85t-84.5 -84.5t-78.5 -69h-111v24q32 38 70 91.5t74 110t60 102.5h201z" />
    <glyph glyph-name="Oslashacute" unicode="&#x1fe;" horiz-adv-x="1593" 
d="M1468 733q0 -169 -43 -307.5t-127.5 -238t-209.5 -153.5t-290 -54q-118 0 -214 25.5t-170 76.5l-102 -144l-116 76l110 156q-91 100 -136 243.5t-45 321.5q0 224 74 393t224.5 263t377.5 94q107 0 200 -25.5t168 -71.5l98 139l115 -79l-106 -148q93 -98 142.5 -241.5
t49.5 -325.5zM1289 733q0 134 -28 242.5t-83 184.5l-673 -948q56 -40 129 -62.5t164 -22.5q170 0 278.5 74t160.5 210t52 322zM304 733q0 -130 26 -235.5t78 -182.5l670 942q-54 38 -123 58t-154 20q-170 0 -280 -73t-163.5 -207.5t-53.5 -321.5zM1089 1936v-20
q-20 -29 -54.5 -69.5t-76.5 -85t-84.5 -84.5t-78.5 -69h-111v24q32 38 70 91.5t74 110t60 102.5h201z" />
    <glyph glyph-name="oslashacute" unicode="&#x1ff;" horiz-adv-x="1232" 
d="M1120 550q0 -180 -61.5 -307.5t-175 -195t-270.5 -67.5q-79 0 -146.5 18.5t-124.5 55.5l-88 -121l-109 75l97 132q-61 75 -94.5 177.5t-33.5 232.5q0 270 135.5 418t370.5 148q78 0 147 -20t125 -58l85 119l112 -73l-97 -132q60 -73 94 -174t34 -228zM286 550
q0 -82 12.5 -150.5t40.5 -120.5l468 640q-37 27 -85 42t-106 15q-171 0 -250.5 -113t-79.5 -313zM948 550q0 79 -13 146t-39 118l-468 -641q35 -27 83.5 -41t105.5 -14q114 0 187.5 53t108.5 150t35 229zM907 1569v-20q-20 -29 -54.5 -69.5t-76.5 -85t-84.5 -84.5t-78.5 -69
h-111v24q32 38 70 91.5t74 110t60 102.5h201z" />
    <glyph glyph-name="uni0218" unicode="&#x218;" horiz-adv-x="1123" 
d="M1025 389q0 -130 -64.5 -221.5t-180.5 -139.5t-273 -48q-83 0 -157 8t-136 23t-109 37v163q75 -31 183 -57.5t226 -26.5q110 0 186 29.5t115.5 85t39.5 133.5q0 75 -33 125.5t-109.5 92t-208.5 88.5q-93 33 -164 72.5t-119 89.5t-72.5 116t-24.5 151q0 117 59.5 200.5
t165 128t242.5 44.5q117 0 216.5 -22t182.5 -59l-53 -146q-79 33 -167.5 55t-182.5 22t-158.5 -27.5t-98.5 -77.5t-34 -119q0 -77 32.5 -128t104 -90.5t189.5 -82.5q129 -47 219 -99.5t137 -128t47 -191.5zM651 -125v-17q-10 -39 -34 -95t-56.5 -113.5t-68.5 -102.5h-91v24
q15 34 32.5 88.5t32.5 113t20 102.5h165z" />
    <glyph glyph-name="uni0219" unicode="&#x219;" horiz-adv-x="976" 
d="M884 300q0 -105 -52.5 -176.5t-150 -107.5t-232.5 -36q-115 0 -199 18t-147 51v153q67 -33 160 -60t190 -27q142 0 206 46t64 125q0 45 -25.5 79.5t-85.5 67t-166 71.5q-105 40 -181.5 79.5t-118 96.5t-41.5 148q0 139 112.5 213.5t295.5 74.5q99 0 185.5 -19.5
t161.5 -52.5l-56 -133q-68 29 -145 49t-157 20q-115 0 -176.5 -38t-61.5 -104q0 -51 28.5 -84t91.5 -62t166 -68q103 -38 178 -78.5t115.5 -98t40.5 -147.5zM611 -125v-17q-10 -39 -34 -95t-56.5 -113.5t-68.5 -102.5h-91v24q15 34 32.5 88.5t32.5 113t20 102.5h165z" />
    <glyph glyph-name="circumflex" unicode="&#x2c6;" horiz-adv-x="837" 
d="M501 1568q25 -45 70 -101.5t95 -110.5t89 -93v-22h-118q-54 35 -111 86t-111 106q-54 -55 -109.5 -105.5t-109.5 -86.5h-114v22q38 40 86.5 94t93 110t70.5 101h169z" />
    <glyph glyph-name="caron" unicode="&#x2c7;" horiz-adv-x="837" 
d="M332 1241q-26 46 -71 101t-93.5 108.5t-85.5 92.5v25h114q54 -37 111.5 -88.5t107.5 -107.5q54 56 111 107.5t111 88.5h118v-25q-39 -39 -89 -92.5t-95 -108.5t-70 -101h-169z" />
    <glyph glyph-name="macron" unicode="&#x2c9;" horiz-adv-x="763" 
d="M681 1377v-134h-599v134h599z" />
    <glyph glyph-name="breve" unicode="&#x2d8;" horiz-adv-x="786" 
d="M704 1511q-7 -81 -45.5 -141.5t-106.5 -94.5t-164 -34q-147 0 -222.5 73t-83.5 197h104q6 -56 31 -85t69 -39.5t106 -10.5q55 0 99 11.5t72 41t35 82.5h106z" />
    <glyph glyph-name="dotaccent" unicode="&#x2d9;" horiz-adv-x="364" 
d="M182 1506q41 0 70.5 -26.5t29.5 -82.5q0 -55 -29.5 -82t-70.5 -27q-43 0 -71.5 27t-28.5 82q0 56 28.5 82.5t71.5 26.5z" />
    <glyph glyph-name="ring" unicode="&#x2da;" horiz-adv-x="610" 
d="M303 1242q-97 0 -159 57t-62 159q0 100 61.5 157t159.5 57q95 0 160 -57t65 -155q0 -103 -64 -160.5t-161 -57.5zM303 1338q53 0 86.5 32.5t33.5 87.5t-34.5 87t-85.5 32q-50 0 -84.5 -32t-34.5 -87t31 -87.5t88 -32.5z" />
    <glyph glyph-name="ogonek" unicode="&#x2db;" horiz-adv-x="495" 
d="M219 -241q0 -47 25 -71.5t71 -24.5q33 0 57 4.5t41 8.5v-108q-28 -7 -57 -12.5t-68 -5.5q-105 0 -155.5 50t-50.5 140q0 58 29 112.5t73 100.5t88 77l92 -30q-70 -64 -107.5 -120t-37.5 -121z" />
    <glyph glyph-name="tilde" unicode="&#x2dc;" horiz-adv-x="906" 
d="M82 1244q6 60 23 107t45 80t66.5 50.5t85.5 17.5q46 0 88 -18.5t80 -42t73.5 -42t68.5 -18.5q48 0 74.5 29.5t40.5 93.5h98q-13 -117 -69 -186.5t-151 -69.5q-44 0 -85 18.5t-79 42t-74.5 42t-71.5 18.5q-49 0 -75 -29.5t-40 -92.5h-98z" />
    <glyph glyph-name="hungarumlaut" unicode="&#x2dd;" horiz-adv-x="886" 
d="M804 1569v-20q-17 -28 -48 -68.5t-69.5 -85t-78 -85t-73.5 -69.5h-96v24q30 39 64 92.5t66 109.5t53 102h182zM447 1569v-20q-17 -28 -48 -68.5t-69.5 -85t-78 -85t-73.5 -69.5h-96v24q30 39 63.5 92.5t65.5 109.5t54 102h182z" />
    <glyph glyph-name="tonos" unicode="&#x384;" horiz-adv-x="1182" 
d="M520 1241v27q14 38 28.5 86t27 100t22.5 102.5t16 92.5h179v-22q-11 -47 -39 -116t-63 -141t-69 -129h-102z" />
    <glyph glyph-name="dieresistonos" unicode="&#x385;" horiz-adv-x="1182" 
d="M798 1716v-20q-20 -43 -51.5 -96.5t-68.5 -109t-74 -103.5h-81v23q16 42 33.5 95t33.5 108.5t25 102.5h183zM377 1490q38 0 63.5 -23t25.5 -73q0 -49 -25.5 -73.5t-63.5 -24.5t-63.5 24.5t-25.5 73.5q0 50 25.5 73t63.5 23zM822 1490q36 0 63 -23t27 -73q0 -49 -27 -73.5
t-63 -24.5q-40 0 -64.5 24.5t-24.5 73.5q0 50 24.5 73t64.5 23z" />
    <glyph glyph-name="Alphatonos" unicode="&#x386;" horiz-adv-x="1295" 
d="M1117 0l-180 464h-586l-179 -464h-172l572 1468h153l568 -1468h-176zM886 615l-171 461q-6 18 -19.5 59t-27.5 85t-23 71q-10 -41 -21.5 -81.5t-22.5 -75t-19 -58.5l-174 -461h478zM27 1132v27q14 38 28.5 86t27 100t22.5 102.5t16 92.5h179v-22q-11 -47 -39 -116
t-63 -141t-69 -129h-102z" />
    <glyph glyph-name="anoteleia" unicode="&#x387;" horiz-adv-x="538" 
d="M150 993q0 70 34 99.5t83 29.5q51 0 86 -29.5t35 -99.5q0 -69 -35 -100.5t-86 -31.5q-49 0 -83 31.5t-34 100.5z" />
    <glyph glyph-name="Epsilontonos" unicode="&#x388;" horiz-adv-x="1301" 
d="M1177 0h-814v1462h814v-150h-644v-473h607v-148h-607v-541h644v-150zM-2 1132v27q14 38 28.5 86t27 100t22.5 102.5t16 92.5h179v-22q-11 -47 -39 -116t-63 -141t-69 -129h-102z" />
    <glyph glyph-name="Etatonos" unicode="&#x389;" horiz-adv-x="1673" 
d="M1471 0h-170v689h-768v-689h-170v1462h170v-623h768v623h170v-1462zM-2 1132v27q14 38 28.5 86t27 100t22.5 102.5t16 92.5h179v-22q-11 -47 -39 -116t-63 -141t-69 -129h-102z" />
    <glyph glyph-name="Iotatonos" unicode="&#x38a;" horiz-adv-x="740" 
d="M367 0v1462h170v-1462h-170zM-2 1132v27q14 38 28.5 86t27 100t22.5 102.5t16 92.5h179v-22q-11 -47 -39 -116t-63 -141t-69 -129h-102z" />
    <glyph glyph-name="Omicrontonos" unicode="&#x38c;" horiz-adv-x="1679" 
d="M1553 733q0 -169 -43 -307.5t-127.5 -238t-209.5 -153.5t-290 -54q-170 0 -296.5 54t-210 154t-125 239t-41.5 308q0 224 74 393t224.5 263t377.5 94q217 0 365.5 -93t225 -261.5t76.5 -397.5zM389 733q0 -186 53 -322t162.5 -210t278.5 -74q170 0 278.5 74t160.5 210
t52 322q0 283 -118.5 442.5t-369.5 159.5q-170 0 -280 -73t-163.5 -207.5t-53.5 -321.5zM-2 1132v27q14 38 28.5 86t27 100t22.5 102.5t16 92.5h179v-22q-11 -47 -39 -116t-63 -141t-69 -129h-102z" />
    <glyph glyph-name="Upsilontonos" unicode="&#x38e;" horiz-adv-x="1455" 
d="M882 729l389 733h183l-487 -895v-567h-170v559l-488 903h186zM-2 1132v27q14 38 28.5 86t27 100t22.5 102.5t16 92.5h179v-22q-11 -47 -39 -116t-63 -141t-69 -129h-102z" />
    <glyph glyph-name="Omegatonos" unicode="&#x38f;" horiz-adv-x="1668" 
d="M869 1335q-165 0 -273.5 -62.5t-161.5 -178.5t-53 -277q0 -142 35.5 -262.5t113.5 -224t205 -194.5v-136h-586v150h375q-90 68 -163.5 165t-116.5 224.5t-43 283.5q0 202 79 350.5t228.5 230t360.5 81.5q215 0 365 -80.5t228 -228.5t78 -351q0 -157 -42.5 -285
t-115.5 -225.5t-164 -164.5h374v-150h-586v136q129 90 207 194t113.5 225.5t35.5 261.5q0 162 -54 278t-163.5 178t-275.5 62zM-14 1134v27q14 38 28.5 86t27 100t22.5 102.5t16 92.5h179v-22q-11 -47 -39 -116t-63 -141t-69 -129h-102z" />
    <glyph glyph-name="iotadieresistonos" unicode="&#x390;" horiz-adv-x="695" 
d="M332 1096v-775q0 -103 39.5 -154t124.5 -51q43 0 90 7.5t73 15.5v-129q-28 -13 -81 -21.5t-104 -8.5q-90 0 -159 29.5t-108 103t-39 204.5v779h164zM467 1716v-20q-20 -43 -51.5 -96.5t-68.5 -109t-74 -103.5h-81v23q16 42 33.5 95t33.5 108.5t25 102.5h183zM46 1490
q38 0 63.5 -23t25.5 -73q0 -49 -25.5 -73.5t-63.5 -24.5t-63.5 24.5t-25.5 73.5q0 50 25.5 73t63.5 23zM491 1490q36 0 63 -23t27 -73q0 -49 -27 -73.5t-63 -24.5q-40 0 -64.5 24.5t-24.5 73.5q0 50 24.5 73t64.5 23z" />
    <glyph glyph-name="Alpha" unicode="&#x391;" horiz-adv-x="1295" 
d="M1117 0l-180 464h-586l-179 -464h-172l572 1468h153l568 -1468h-176zM886 615l-171 461q-6 18 -19.5 59t-27.5 85t-23 71q-10 -41 -21.5 -81.5t-22.5 -75t-19 -58.5l-174 -461h478z" />
    <glyph glyph-name="Beta" unicode="&#x392;" horiz-adv-x="1323" 
d="M200 1462h414q274 0 412 -82t138 -279q0 -85 -32.5 -152.5t-94.5 -111.5t-153 -61v-10q96 -15 170 -55t116 -112t42 -183q0 -135 -62.5 -228t-176.5 -140.5t-270 -47.5h-503v1462zM370 835h280q191 0 264.5 63t73.5 184q0 125 -87.5 180t-278.5 55h-252v-482zM370 692
v-547h304q195 0 276 76.5t81 206.5q0 83 -36.5 142t-118 90.5t-217.5 31.5h-289z" />
    <glyph glyph-name="Gamma" unicode="&#x393;" horiz-adv-x="1065" 
d="M1021 1462v-152h-651v-1310h-170v1462h821z" />
    <glyph glyph-name="uni0394" unicode="&#x394;" horiz-adv-x="1186" 
d="M677 1462l472 -1360v-102h-1112v104l471 1358h169zM961 150l-274 800q-20 60 -38 117t-33 110t-26 100q-12 -47 -26 -99.5t-30.5 -107.5t-35.5 -112l-278 -808h741z" />
    <glyph glyph-name="Epsilon" unicode="&#x395;" horiz-adv-x="1138" 
d="M1014 0h-814v1462h814v-150h-644v-473h607v-148h-607v-541h644v-150z" />
    <glyph glyph-name="Zeta" unicode="&#x396;" horiz-adv-x="1172" 
d="M1093 0h-1015v128l787 1182h-760v152h967v-128l-788 -1182h809v-152z" />
    <glyph glyph-name="Eta" unicode="&#x397;" horiz-adv-x="1510" 
d="M1308 0h-170v689h-768v-689h-170v1462h170v-623h768v623h170v-1462z" />
    <glyph glyph-name="Theta" unicode="&#x398;" horiz-adv-x="1593" 
d="M1109 817v-148h-627v148h627zM1468 733q0 -169 -43 -307.5t-127.5 -238t-209.5 -153.5t-290 -54q-170 0 -296.5 54t-210 154t-125 239t-41.5 308q0 224 74 393t224.5 263t377.5 94q217 0 365.5 -93t225 -261.5t76.5 -397.5zM304 733q0 -186 53 -322t162.5 -210t278.5 -74
q170 0 278.5 74t160.5 210t52 322q0 283 -118.5 442.5t-369.5 159.5q-170 0 -280 -73t-163.5 -207.5t-53.5 -321.5z" />
    <glyph glyph-name="Iota" unicode="&#x399;" horiz-adv-x="572" 
d="M200 0v1462h170v-1462h-170z" />
    <glyph glyph-name="Kappa" unicode="&#x39a;" horiz-adv-x="1254" 
d="M1254 0h-201l-527 711l-156 -140v-571h-170v1462h170v-729q57 65 117 129.5t119 130.5l427 469h199l-582 -634z" />
    <glyph glyph-name="Lambda" unicode="&#x39b;" horiz-adv-x="1235" 
d="M704 1462l529 -1462h-179l-337 949q-21 61 -40 118t-35 109.5t-29 99.5q-10 -47 -25 -99.5t-34 -109t-40 -116.5l-334 -951h-180l527 1462h177z" />
    <glyph glyph-name="Mu" unicode="&#x39c;" horiz-adv-x="1842" 
d="M843 0l-491 1294h-8q4 -41 7 -100t5 -128.5t2 -141.5v-924h-158v1462h252l463 -1216h7l470 1216h250v-1462h-168v936q0 65 2 130.5t5 124t6 101.5h-8l-497 -1292h-139z" />
    <glyph glyph-name="Nu" unicode="&#x39d;" horiz-adv-x="1542" 
d="M1343 0h-196l-797 1228h-8q3 -49 7 -111.5t6.5 -133t2.5 -143.5v-840h-158v1462h195l794 -1224h7q-2 35 -5 99.5t-5.5 139t-2.5 138.5v847h160v-1462z" />
    <glyph glyph-name="Xi" unicode="&#x39e;" horiz-adv-x="1128" 
d="M67 0v150h993v-150h-993zM190 690v149h747v-149h-747zM108 1312v150h911v-150h-911z" />
    <glyph glyph-name="Omicron" unicode="&#x39f;" horiz-adv-x="1593" 
d="M1468 733q0 -169 -43 -307.5t-127.5 -238t-209.5 -153.5t-290 -54q-170 0 -296.5 54t-210 154t-125 239t-41.5 308q0 224 74 393t224.5 263t377.5 94q217 0 365.5 -93t225 -261.5t76.5 -397.5zM304 733q0 -186 53 -322t162.5 -210t278.5 -74q170 0 278.5 74t160.5 210
t52 322q0 283 -118.5 442.5t-369.5 159.5q-170 0 -280 -73t-163.5 -207.5t-53.5 -321.5z" />
    <glyph glyph-name="Pi" unicode="&#x3a0;" horiz-adv-x="1491" 
d="M200 0v1462h1089v-1462h-168v1312h-751v-1312h-170z" />
    <glyph glyph-name="Rho" unicode="&#x3a1;" horiz-adv-x="1232" 
d="M582 1462q283 0 413.5 -110.5t130.5 -316.5q0 -93 -30.5 -176.5t-98.5 -147t-178.5 -100t-270.5 -36.5h-178v-575h-170v1462h382zM566 1317h-196v-596h159q140 0 233.5 30t140.5 97.5t47 179.5q0 146 -93 217.5t-291 71.5z" />
    <glyph glyph-name="Sigma" unicode="&#x3a3;" horiz-adv-x="1160" 
d="M72 0v140l490 624l-478 557v141h971v-152h-538h-77.5t-90.5 0.5t-68 1.5l471 -546l-492 -618q75 0 150 1t154 1h550v-150h-1042z" />
    <glyph glyph-name="Tau" unicode="&#x3a4;" horiz-adv-x="1128" 
d="M649 0h-171v1312h-460v150h1089v-150h-458v-1312z" />
    <glyph glyph-name="Upsilon" unicode="&#x3a5;" horiz-adv-x="1145" 
d="M573 729l389 733h183l-487 -895v-567h-170v559l-488 903h186z" />
    <glyph glyph-name="Phi" unicode="&#x3a6;" horiz-adv-x="1632" 
d="M899 1483v-180q232 -4 369 -76t197 -193t60 -274q0 -104 -32 -202t-104 -176.5t-192.5 -126t-297.5 -50.5v-225h-168v225q-181 3 -302 52t-192 128t-101.5 176t-30.5 197q0 111 33 208.5t106.5 172t193.5 118t293 46.5v180h168zM731 1159q-166 -4 -265.5 -53.5
t-143.5 -137.5t-44 -208q0 -126 48.5 -217.5t149 -142t255.5 -55.5v814zM899 1159v-814q160 5 260 57t147 144t47 216q0 121 -44 208.5t-143.5 136t-266.5 52.5z" />
    <glyph glyph-name="Chi" unicode="&#x3a7;" horiz-adv-x="1183" 
d="M1176 0h-193l-395 644l-401 -644h-181l487 762l-453 700h189l365 -583l367 583h180l-452 -697z" />
    <glyph glyph-name="Psi" unicode="&#x3a8;" horiz-adv-x="1633" 
d="M1518 1462v-481q0 -110 -30.5 -207t-102 -170.5t-191.5 -116t-299 -42.5v-445h-166v445q-179 0 -298.5 43t-189.5 117t-100 170.5t-30 203.5v483h170v-479q0 -132 47 -218.5t146 -129t255 -43.5v870h166v-870q159 1 258 44t145 129t46 215v482h174z" />
    <glyph glyph-name="uni03A9" unicode="&#x3a9;" horiz-adv-x="1599" 
d="M799 1335q-165 0 -273.5 -62.5t-161.5 -178.5t-53 -277q0 -142 35.5 -262.5t113.5 -224t205 -194.5v-136h-586v150h375q-90 68 -163.5 165t-116.5 224.5t-43 283.5q0 202 79 350.5t228.5 230t360.5 81.5q215 0 365 -80.5t228 -228.5t78 -351q0 -157 -42.5 -285
t-115.5 -225.5t-164 -164.5h374v-150h-586v136q129 90 207 194t113.5 225.5t35.5 261.5q0 162 -54 278t-163.5 178t-275.5 62z" />
    <glyph glyph-name="Iotadieresis" unicode="&#x3aa;" horiz-adv-x="572" 
d="M200 0v1462h170v-1462h-170zM6 1761q0 50 26 73t64 23q39 0 65.5 -23t26.5 -73q0 -49 -26.5 -73.5t-65.5 -24.5q-38 0 -64 24.5t-26 73.5zM390 1761q0 50 26 73t63 23q38 0 65 -23t27 -73q0 -49 -27 -73.5t-65 -24.5q-37 0 -63 24.5t-26 73.5z" />
    <glyph glyph-name="Upsilondieresis" unicode="&#x3ab;" horiz-adv-x="1145" 
d="M573 729l389 733h183l-487 -895v-567h-170v559l-488 903h186zM290 1761q0 50 26 73t64 23q39 0 65.5 -23t26.5 -73q0 -49 -26.5 -73.5t-65.5 -24.5q-38 0 -64 24.5t-26 73.5zM674 1761q0 50 26 73t63 23q38 0 65 -23t27 -73q0 -49 -27 -73.5t-65 -24.5q-37 0 -63 24.5
t-26 73.5z" />
    <glyph glyph-name="alphatonos" unicode="&#x3ac;" horiz-adv-x="1251" 
d="M591 118q115 0 184.5 45t101.5 137.5t32 233.5v16q0 210 -69.5 318t-248.5 108q-155 0 -230 -111t-75 -323q0 -210 73.5 -317t231.5 -107zM564 -20q-204 0 -327 142t-123 422q0 277 123 424.5t344 147.5q122 0 203.5 -44t133.5 -130h12q8 38 24 80t38 74h132
q-15 -46 -26.5 -117t-18 -151t-6.5 -155v-431q0 -70 25 -98t62 -28q16 0 34.5 3.5t28.5 7.5v-122q-10 -6 -28 -11.5t-39.5 -9.5t-43.5 -4q-76 0 -123.5 38t-66.5 138h-13q-31 -48 -75.5 -88t-110 -64t-159.5 -24zM555 1241v27q14 38 28.5 86t27 100t22.5 102.5t16 92.5h179
v-22q-11 -47 -39 -116t-63 -141t-69 -129h-102z" />
    <glyph glyph-name="epsilontonos" unicode="&#x3ad;" horiz-adv-x="978" 
d="M718 640v-136h-146q-106 0 -176.5 -22t-105.5 -66t-35 -110q0 -68 38.5 -110t105.5 -61t152 -19q112 0 198.5 26t154.5 58v-147q-62 -32 -150 -52.5t-212 -20.5q-231 0 -342 90.5t-111 226.5q0 122 71.5 182.5t171.5 88.5v10q-94 28 -149 89.5t-55 158.5q0 94 53.5 158.5
t147.5 98t214 33.5q116 0 200 -19.5t165 -56.5l-62 -133q-67 31 -138.5 51t-165.5 20q-127 0 -191 -42t-64 -122q0 -93 85.5 -133.5t231.5 -40.5h114zM466 1241v27q14 38 28.5 86t27 100t22.5 102.5t16 92.5h179v-22q-11 -47 -39 -116t-63 -141t-69 -129h-102z" />
    <glyph glyph-name="etatonos" unicode="&#x3ae;" horiz-adv-x="1256" 
d="M694 1116q130 0 218 -42t132.5 -130.5t44.5 -229.5v-1206h-164v1195q0 137 -62 205t-192 68q-120 0 -192.5 -46t-105 -135.5t-32.5 -220.5v-574h-166v1096h134l25 -158h9q35 58 89 97.5t121 60t141 20.5zM586 1241v27q14 38 28.5 86t27 100t22.5 102.5t16 92.5h179v-22
q-11 -47 -39 -116t-63 -141t-69 -129h-102z" />
    <glyph glyph-name="iotatonos" unicode="&#x3af;" horiz-adv-x="695" 
d="M332 1096v-775q0 -103 39.5 -154t124.5 -51q43 0 90 7.5t73 15.5v-129q-28 -13 -81 -21.5t-104 -8.5q-90 0 -159 29.5t-108 103t-39 204.5v779h164zM183 1241v27q14 38 28.5 86t27 100t22.5 102.5t16 92.5h179v-22q-11 -47 -39 -116t-63 -141t-69 -129h-102z" />
    <glyph glyph-name="upsilondieresistonos" unicode="&#x3b0;" horiz-adv-x="1249" 
d="M624 -20q-177 0 -277.5 67t-142 183.5t-41.5 264.5v601h166v-595q0 -181 74 -283t234 -102q167 0 248.5 119.5t81.5 369.5q0 141 -16.5 255t-47.5 236h167q21 -81 35.5 -157t22 -158.5t7.5 -182.5q0 -316 -129 -467t-382 -151zM833 1716v-20q-20 -43 -51.5 -96.5
t-68.5 -109t-74 -103.5h-81v23q16 42 33.5 95t33.5 108.5t25 102.5h183zM412 1490q38 0 63.5 -23t25.5 -73q0 -49 -25.5 -73.5t-63.5 -24.5t-63.5 24.5t-25.5 73.5q0 50 25.5 73t63.5 23zM857 1490q36 0 63 -23t27 -73q0 -49 -27 -73.5t-63 -24.5q-40 0 -64.5 24.5
t-24.5 73.5q0 50 24.5 73t64.5 23z" />
    <glyph glyph-name="alpha" unicode="&#x3b1;" horiz-adv-x="1251" 
d="M591 118q115 0 184.5 45t101.5 137.5t32 233.5v16q0 210 -69.5 318t-248.5 108q-155 0 -230 -111t-75 -323q0 -210 73.5 -317t231.5 -107zM564 -20q-204 0 -327 142t-123 422q0 277 123 424.5t344 147.5q122 0 203.5 -44t133.5 -130h12q8 38 24 80t38 74h132
q-15 -46 -26.5 -117t-18 -151t-6.5 -155v-431q0 -70 25 -98t62 -28q16 0 34.5 3.5t28.5 7.5v-122q-10 -6 -28 -11.5t-39.5 -9.5t-43.5 -4q-76 0 -123.5 38t-66.5 138h-13q-31 -48 -75.5 -88t-110 -64t-159.5 -24z" />
    <glyph glyph-name="beta" unicode="&#x3b2;" horiz-adv-x="1284" 
d="M662 1567q136 0 240.5 -43.5t164 -130t59.5 -215.5q0 -147 -79 -234.5t-228 -112.5v-8q182 -21 276.5 -121t94.5 -285q0 -139 -59.5 -236.5t-170.5 -148.5t-268 -51q-117 0 -199 20t-151 55v-548h-167v1589q0 162 62.5 266t172.5 154t252 50zM658 1428q-87 0 -159 -31.5
t-114.5 -105.5t-42.5 -203v-882q73 -40 152 -64t184 -24q179 0 262.5 81t83.5 229q0 108 -44.5 178.5t-125.5 104.5t-193 34h-110v141h91q161 0 237 77t76 207q0 128 -80 193t-217 65z" />
    <glyph glyph-name="gamma" unicode="&#x3b3;" horiz-adv-x="1047" 
d="M1035 1096l-404 -1063q-32 -84 -54.5 -179t-34.5 -185t-12 -161h-180q0 60 13.5 147.5t37 182t53.5 176.5l-445 1082h173l242 -599q21 -51 43 -113t39.5 -118.5t24.5 -92.5h8q7 33 23.5 91t36.5 119.5t37 105.5l226 607h173z" />
    <glyph glyph-name="delta" unicode="&#x3b4;" horiz-adv-x="1229" 
d="M651 1558q136 0 235 -33.5t181 -74.5l-72 -131q-78 44 -163 73t-188 29q-97 0 -143.5 -44t-46.5 -106q0 -52 27 -92.5t88 -82.5t161 -97q122 -67 208.5 -141t132.5 -165.5t46 -212.5q0 -161 -62.5 -272.5t-176 -169.5t-267.5 -58q-146 0 -258.5 53.5t-176.5 156
t-64 247.5q0 130 55 228.5t152.5 166.5t223.5 105q-79 45 -136.5 93.5t-89 107.5t-31.5 135q0 140 104 212.5t261 72.5zM676 863q-90 -22 -180.5 -69.5t-150.5 -133.5t-60 -224q0 -94 39 -166t112 -112t175 -40q107 0 181.5 42t113.5 122.5t39 195.5q0 142 -71.5 231
t-197.5 154z" />
    <glyph glyph-name="epsilon" unicode="&#x3b5;" horiz-adv-x="978" 
d="M718 640v-136h-146q-106 0 -176.5 -22t-105.5 -66t-35 -110q0 -68 38.5 -110t105.5 -61t152 -19q112 0 198.5 26t154.5 58v-147q-62 -32 -150 -52.5t-212 -20.5q-231 0 -342 90.5t-111 226.5q0 122 71.5 182.5t171.5 88.5v10q-94 28 -149 89.5t-55 158.5q0 94 53.5 158.5
t147.5 98t214 33.5q116 0 200 -19.5t165 -56.5l-62 -133q-67 31 -138.5 51t-165.5 20q-127 0 -191 -42t-64 -122q0 -93 85.5 -133.5t231.5 -40.5h114z" />
    <glyph glyph-name="zeta" unicode="&#x3b6;" horiz-adv-x="985" 
d="M928 -90q0 -88 -38.5 -166t-88.5 -143h-165q33 43 62 91t46.5 94t17.5 82q0 32 -18 57.5t-71.5 46.5t-161.5 40q-131 23 -219.5 76.5t-133 145t-44.5 225.5q0 151 48 278t133 240.5t197 222.5t240 225q-12 -1 -57.5 -2.5t-108.5 -3t-129 -1.5h-261v138h754v-125
q-210 -178 -337.5 -318t-194 -253t-89.5 -208t-23 -182q0 -116 41 -179t119.5 -94t190.5 -54q104 -20 168 -51.5t93.5 -76t29.5 -105.5z" />
    <glyph glyph-name="eta" unicode="&#x3b7;" horiz-adv-x="1256" 
d="M694 1116q130 0 218 -42t132.5 -130.5t44.5 -229.5v-1206h-164v1195q0 137 -62 205t-192 68q-120 0 -192.5 -46t-105 -135.5t-32.5 -220.5v-574h-166v1096h134l25 -158h9q35 58 89 97.5t121 60t141 20.5z" />
    <glyph glyph-name="theta" unicode="&#x3b8;" horiz-adv-x="1210" 
d="M1097 776q0 -252 -50 -430t-159 -272t-286 -94q-250 0 -369.5 209t-119.5 586q0 252 50 429.5t158 271t281 93.5q251 0 373 -206.5t122 -586.5zM602 116q164 0 242 152.5t85 457.5h-648q5 -302 80 -456t241 -154zM602 1432q-160 0 -235.5 -142.5t-85.5 -425.5h646
q-10 283 -87 425.5t-238 142.5z" />
    <glyph glyph-name="iota" unicode="&#x3b9;" horiz-adv-x="695" 
d="M332 1096v-775q0 -103 39.5 -154t124.5 -51q43 0 90 7.5t73 15.5v-129q-28 -13 -81 -21.5t-104 -8.5q-90 0 -159 29.5t-108 103t-39 204.5v779h164z" />
    <glyph glyph-name="kappa" unicode="&#x3ba;" horiz-adv-x="1076" 
d="M1026 1096l-415 -484l449 -612h-198l-368 505l-143 -124v-381h-176v1096h176v-286q0 -82 -3.5 -161.5t-8.5 -126.5h4q20 27 42.5 54.5t41.5 52.5l398 467h201z" />
    <glyph glyph-name="lambda" unicode="&#x3bb;" horiz-adv-x="1096" 
d="M-12 0l473 1080l-57 161q-34 91 -73.5 140t-125.5 49q-36 0 -63.5 -4t-48.5 -9v135q18 5 39 8.5t44.5 6t47.5 2.5q101 0 163 -35t104.5 -108t83.5 -187l361 -1013q14 -38 28.5 -62t32.5 -35.5t41 -11.5q15 0 32.5 3.5t27.5 6.5v-124q-14 -6 -31.5 -11.5t-37 -8.5
t-42.5 -3q-48 0 -83 16t-60.5 52t-46.5 94l-162 457q-12 36 -26.5 77.5t-28.5 83.5t-25 80t-17 66h-7q-18 -67 -46.5 -144t-60.5 -153l-264 -609h-172z" />
    <glyph glyph-name="uni03BC" unicode="&#x3bc;" horiz-adv-x="1266" 
d="M1091 1096v-1096h-135l-26 152h-9q-34 -54 -81 -92.5t-109.5 -59t-143.5 -20.5q-86 0 -146.5 27t-100.5 73h-8q3 -24 5 -59.5t3 -80t1 -97.5v-335h-166v1588h166v-708q0 -133 64 -201.5t193 -68.5q124 0 195 46.5t101.5 136t30.5 218.5v577h166z" />
    <glyph glyph-name="nu" unicode="&#x3bd;" horiz-adv-x="1108" 
d="M0 1096h172l234 -631q17 -44 38.5 -105.5t41 -120.5t28.5 -97h8q127 127 201 271t106 312.5t32 370.5h164q0 -217 -39.5 -403.5t-135 -356t-263.5 -336.5h-178z" />
    <glyph glyph-name="xi" unicode="&#x3be;" horiz-adv-x="971" 
d="M112 423q0 104 40.5 182t107 130t144.5 75v11q-69 19 -119 55t-77 92t-27 135q0 98 42 161.5t112 102.5t153 62q-27 -3 -66.5 -5.5t-86 -4t-93.5 -1.5h-67v138h703v-129h-56q-88 0 -173.5 -19.5t-154.5 -59t-110.5 -100t-41.5 -142.5q0 -109 78.5 -166t262.5 -57h166
v-128h-171q-126 0 -213.5 -41.5t-133 -113.5t-45.5 -165q0 -105 43.5 -160t123.5 -82t190 -50q105 -22 167 -54.5t89.5 -76.5t27.5 -102q0 -87 -38 -165.5t-83 -143.5h-158q33 45 60.5 92.5t43.5 93.5t16 83q0 31 -17.5 55.5t-72 46t-164.5 41.5q-132 23 -221.5 74t-135 134
t-45.5 202z" />
    <glyph glyph-name="omicron" unicode="&#x3bf;" horiz-adv-x="1232" 
d="M1120 550q0 -135 -35 -241t-101 -179t-159.5 -111.5t-211.5 -38.5q-110 0 -201.5 38.5t-158 111.5t-103 179t-36.5 241q0 180 61 306.5t174.5 193t270.5 66.5q150 0 262.5 -67t175 -193.5t62.5 -305.5zM286 550q0 -132 35 -229t108 -150t188 -53q114 0 187.5 53
t108.5 150t35 229q0 131 -35 226.5t-108 147.5t-189 52q-171 0 -250.5 -113t-79.5 -313z" />
    <glyph glyph-name="pi" unicode="&#x3c0;" horiz-adv-x="1333" 
d="M1151 116q28 0 51 6.5t38 13.5v-132q-16 -8 -50 -16t-81 -8q-108 0 -164.5 64.5t-56.5 191.5v721h-476v-957h-164v957h-223v75l150 64h1094v-139h-217v-708q0 -73 27 -103t72 -30z" />
    <glyph glyph-name="rho" unicode="&#x3c1;" horiz-adv-x="1231" 
d="M1118 549q0 -185 -58 -312t-166 -192t-258 -65q-87 0 -166 24.5t-138 69.5h-9q5 -37 7 -107.5t2 -159.5v-299h-168v1057q0 185 58.5 307t167 183t257.5 61q141 0 247 -65t165 -191.5t59 -310.5zM640 976q-157 0 -232.5 -104.5t-75.5 -310.5v-340q60 -51 138.5 -77
t164.5 -26q164 0 238.5 109t74.5 322q0 214 -72.5 320.5t-235.5 106.5z" />
    <glyph glyph-name="uni03C2" unicode="&#x3c2;" horiz-adv-x="988" 
d="M639 1116q81 0 158.5 -16.5t134.5 -40.5l-52 -139q-55 20 -117.5 35.5t-130.5 15.5q-183 0 -264.5 -115t-81.5 -333q0 -122 29.5 -194t107 -113t219.5 -72q105 -22 167.5 -54.5t90 -76.5t27.5 -103q0 -88 -38.5 -168t-82.5 -141h-158q33 44 60.5 91.5t44.5 93.5t17 84
q0 32 -18 57t-72 46.5t-162 41.5q-87 17 -161 51.5t-128.5 93.5t-84.5 147.5t-30 213.5q0 204 66 335.5t184 195.5t275 64z" />
    <glyph glyph-name="sigma" unicode="&#x3c3;" horiz-adv-x="1253" 
d="M1117 505q0 -150 -57.5 -269t-170 -187.5t-278.5 -68.5q-151 0 -263 63t-173 184t-61 295q0 203 71.5 329.5t205 185.5t317.5 59h495v-139h-264q80 -79 129 -191t49 -261zM286 522q0 -118 34 -209t107 -143t189 -52q173 0 252 107.5t79 276.5q0 90 -20 171t-58.5 152
t-93.5 132h-67q-214 0 -318 -100.5t-104 -334.5z" />
    <glyph glyph-name="tau" unicode="&#x3c4;" horiz-adv-x="969" 
d="M912 1096v-141h-428v-621q0 -121 54 -171t145 -50q45 0 92.5 6.5t79.5 15.5v-125q-29 -12 -83 -22t-113 -10q-95 0 -173 29t-124.5 102.5t-46.5 206.5v639h-295v77l150 64h742z" />
    <glyph glyph-name="upsilon" unicode="&#x3c5;" horiz-adv-x="1249" 
d="M624 -20q-177 0 -277.5 67t-142 183.5t-41.5 264.5v601h166v-595q0 -181 74 -283t234 -102q167 0 248.5 119.5t81.5 369.5q0 141 -16.5 255t-47.5 236h167q21 -81 35.5 -157t22 -158.5t7.5 -182.5q0 -316 -129 -467t-382 -151z" />
    <glyph glyph-name="phi" unicode="&#x3c6;" horiz-adv-x="1468" 
d="M323 1107l128 -89q-77 -100 -124 -211.5t-47 -256.5q0 -150 48 -242t130.5 -136.5t183.5 -53.5v623q0 184 84 279.5t232 95.5q124 0 212.5 -67.5t136 -189t47.5 -283.5q0 -195 -75 -324t-200 -195.5t-275 -75.5v-473h-162v473q-155 9 -274 69.5t-186.5 184.5t-67.5 320
q0 167 59 304.5t150 247.5zM960 978q-66 0 -111 -53t-45 -182v-625q110 9 196 61.5t136 151t50 243.5q0 130 -29 220t-80 137t-117 47z" />
    <glyph glyph-name="chi" unicode="&#x3c7;" horiz-adv-x="1115" 
d="M176 1104q64 0 105 -27.5t71 -80t59 -129.5l150 -379l319 608h177l-425 -768l195 -494q25 -64 49 -105.5t56 -62t80 -20.5q26 0 49 2.5t41 5.5v-129q-22 -6 -51 -11.5t-70 -5.5q-87 0 -143 32t-93 92.5t-69 145.5l-154 402l-360 -672h-178l462 838l-177 455
q-29 80 -62.5 123.5t-84.5 43.5q-19 0 -36.5 -3t-31.5 -9v131q21 7 51 12t71 5z" />
    <glyph glyph-name="psi" unicode="&#x3c8;" horiz-adv-x="1545" 
d="M857 1554v-1431q123 10 212 61.5t137.5 149t48.5 244.5q0 141 -17 260t-49 258h165q32 -135 48 -255.5t16 -256.5q0 -207 -73.5 -336.5t-200 -192.5t-287.5 -72v-475h-162v475q-158 6 -278 64.5t-187 182t-67 322.5v544h164v-548q0 -154 49.5 -245t133 -133t185.5 -49
v1433h162z" />
    <glyph glyph-name="omega" unicode="&#x3c9;" horiz-adv-x="1585" 
d="M1347 1096q42 -94 69 -183.5t40 -182.5t13 -200q0 -161 -43 -285.5t-128.5 -194.5t-213.5 -70q-114 0 -184.5 48t-103.5 139h-9q-31 -91 -102.5 -139t-183.5 -48q-124 0 -210.5 68.5t-131 192t-44.5 289.5q0 107 13.5 200t40.5 182t69 184h169q-64 -144 -94.5 -274.5
t-30.5 -293.5q0 -203 62 -306.5t168 -103.5q69 0 113.5 35t66 96.5t21.5 140.5v314h159v-314q0 -87 23 -147.5t67.5 -92.5t107.5 -32q73 0 125 46.5t80 138t28 225.5q0 163 -30.5 293.5t-95.5 274.5h170z" />
    <glyph glyph-name="iotadieresis" unicode="&#x3ca;" horiz-adv-x="695" 
d="M332 1096v-775q0 -103 39.5 -154t124.5 -51q43 0 90 7.5t73 15.5v-129q-28 -13 -81 -21.5t-104 -8.5q-90 0 -159 29.5t-108 103t-39 204.5v779h164zM-23 1394q0 50 26 73t64 23q39 0 65.5 -23t26.5 -73q0 -49 -26.5 -73.5t-65.5 -24.5q-38 0 -64 24.5t-26 73.5zM361 1394
q0 50 26 73t63 23q38 0 65 -23t27 -73q0 -49 -27 -73.5t-65 -24.5q-37 0 -63 24.5t-26 73.5z" />
    <glyph glyph-name="upsilondieresis" unicode="&#x3cb;" horiz-adv-x="1249" 
d="M624 -20q-177 0 -277.5 67t-142 183.5t-41.5 264.5v601h166v-595q0 -181 74 -283t234 -102q167 0 248.5 119.5t81.5 369.5q0 141 -16.5 255t-47.5 236h167q21 -81 35.5 -157t22 -158.5t7.5 -182.5q0 -316 -129 -467t-382 -151zM343 1394q0 50 26 73t64 23q39 0 65.5 -23
t26.5 -73q0 -49 -26.5 -73.5t-65.5 -24.5q-38 0 -64 24.5t-26 73.5zM727 1394q0 50 26 73t63 23q38 0 65 -23t27 -73q0 -49 -27 -73.5t-65 -24.5q-37 0 -63 24.5t-26 73.5z" />
    <glyph glyph-name="omicrontonos" unicode="&#x3cc;" horiz-adv-x="1232" 
d="M1120 550q0 -135 -35 -241t-101 -179t-159.5 -111.5t-211.5 -38.5q-110 0 -201.5 38.5t-158 111.5t-103 179t-36.5 241q0 180 61 306.5t174.5 193t270.5 66.5q150 0 262.5 -67t175 -193.5t62.5 -305.5zM286 550q0 -132 35 -229t108 -150t188 -53q114 0 187.5 53
t108.5 150t35 229q0 131 -35 226.5t-108 147.5t-189 52q-171 0 -250.5 -113t-79.5 -313zM540 1241v27q14 38 28.5 86t27 100t22.5 102.5t16 92.5h179v-22q-11 -47 -39 -116t-63 -141t-69 -129h-102z" />
    <glyph glyph-name="upsilontonos" unicode="&#x3cd;" horiz-adv-x="1249" 
d="M624 -20q-177 0 -277.5 67t-142 183.5t-41.5 264.5v601h166v-595q0 -181 74 -283t234 -102q167 0 248.5 119.5t81.5 369.5q0 141 -16.5 255t-47.5 236h167q21 -81 35.5 -157t22 -158.5t7.5 -182.5q0 -316 -129 -467t-382 -151zM549 1241v27q14 38 28.5 86t27 100
t22.5 102.5t16 92.5h179v-22q-11 -47 -39 -116t-63 -141t-69 -129h-102z" />
    <glyph glyph-name="omegatonos" unicode="&#x3ce;" horiz-adv-x="1585" 
d="M1347 1096q42 -94 69 -183.5t40 -182.5t13 -200q0 -161 -43 -285.5t-128.5 -194.5t-213.5 -70q-114 0 -184.5 48t-103.5 139h-9q-31 -91 -102.5 -139t-183.5 -48q-124 0 -210.5 68.5t-131 192t-44.5 289.5q0 107 13.5 200t40.5 182t69 184h169q-64 -144 -94.5 -274.5
t-30.5 -293.5q0 -203 62 -306.5t168 -103.5q69 0 113.5 35t66 96.5t21.5 140.5v314h159v-314q0 -87 23 -147.5t67.5 -92.5t107.5 -32q73 0 125 46.5t80 138t28 225.5q0 163 -30.5 293.5t-95.5 274.5h170zM712 1241v27q14 38 28.5 86t27 100t22.5 102.5t16 92.5h179v-22
q-11 -47 -39 -116t-63 -141t-69 -129h-102z" />
    <glyph glyph-name="uni0401" unicode="&#x401;" horiz-adv-x="1138" 
d="M1014 0h-814v1462h814v-150h-644v-473h607v-148h-607v-541h644v-150zM343 1761q0 50 26 73t64 23q39 0 65.5 -23t26.5 -73q0 -49 -26.5 -73.5t-65.5 -24.5q-38 0 -64 24.5t-26 73.5zM727 1761q0 50 26 73t63 23q38 0 65 -23t27 -73q0 -49 -27 -73.5t-65 -24.5
q-37 0 -63 24.5t-26 73.5z" />
    <glyph glyph-name="uni0402" unicode="&#x402;" horiz-adv-x="1502" 
d="M978 -20q-47 0 -88 6.5t-65 16.5v148q31 -10 65.5 -15t80.5 -5q50 0 97 20t78 71.5t31 145.5v135q0 122 -61 181.5t-206 59.5h-384v-744h-168v1312h-340v150h965v-150h-457v-418h398q203 0 312 -94.5t109 -275.5v-145q0 -201 -103 -300t-264 -99z" />
    <glyph glyph-name="uni0403" unicode="&#x403;" horiz-adv-x="1065" 
d="M1021 1462v-152h-651v-1310h-170v1462h821zM911 1936v-20q-20 -29 -54.5 -69.5t-76.5 -85t-84.5 -84.5t-78.5 -69h-111v24q32 38 70 91.5t74 110t60 102.5h201z" />
    <glyph glyph-name="uni0404" unicode="&#x404;" horiz-adv-x="1309" 
d="M833 1333q-112 0 -203.5 -32t-159 -95.5t-108.5 -156t-53 -214.5h724v-148h-729q5 -133 40 -236.5t100.5 -175t161.5 -109t223 -37.5q102 0 192 16.5t175 41.5v-148q-80 -30 -176.5 -44.5t-212.5 -14.5q-235 0 -386 94t-223.5 263.5t-72.5 395.5q0 168 46.5 306.5
t137 238t223.5 153.5t305 54q128 0 228.5 -24t184.5 -65l-69 -146q-74 37 -159.5 60t-188.5 23z" />
    <glyph glyph-name="uni0405" unicode="&#x405;" horiz-adv-x="1123" 
d="M1025 389q0 -130 -64.5 -221.5t-180.5 -139.5t-273 -48q-83 0 -157 8t-136 23t-109 37v163q75 -31 183 -57.5t226 -26.5q110 0 186 29.5t115.5 85t39.5 133.5q0 75 -33 125.5t-109.5 92t-208.5 88.5q-93 33 -164 72.5t-119 89.5t-72.5 116t-24.5 151q0 117 59.5 200.5
t165 128t242.5 44.5q117 0 216.5 -22t182.5 -59l-53 -146q-79 33 -167.5 55t-182.5 22t-158.5 -27.5t-98.5 -77.5t-34 -119q0 -77 32.5 -128t104 -90.5t189.5 -82.5q129 -47 219 -99.5t137 -128t47 -191.5z" />
    <glyph glyph-name="uni0406" unicode="&#x406;" horiz-adv-x="572" 
d="M200 0v1462h170v-1462h-170z" />
    <glyph glyph-name="uni0407" unicode="&#x407;" horiz-adv-x="572" 
d="M200 0v1462h170v-1462h-170zM6 1761q0 50 26 73t64 23q39 0 65.5 -23t26.5 -73q0 -49 -26.5 -73.5t-65.5 -24.5q-38 0 -64 24.5t-26 73.5zM390 1761q0 50 26 73t63 23q38 0 65 -23t27 -73q0 -49 -27 -73.5t-65 -24.5q-37 0 -63 24.5t-26 73.5z" />
    <glyph glyph-name="uni0408" unicode="&#x408;" horiz-adv-x="550" 
d="M-11 -385q-50 0 -88 7t-65 19v145q32 -10 69 -15.5t80 -5.5q56 0 103 22t75 75t28 146v1454h171v-1441q0 -137 -45.5 -227t-129 -134.5t-198.5 -44.5z" />
    <glyph glyph-name="uni0409" unicode="&#x409;" horiz-adv-x="1915" 
d="M131 -23q-35 0 -69 7t-61 17v143q23 -10 51.5 -17t60.5 -7q62 0 98.5 49t58 127.5t38.5 164.5q14 71 31 175.5t36 235t39.5 280.5t41.5 310h679v-622h139q208 0 330.5 -53t175.5 -146t53 -214q0 -196 -128 -311.5t-401 -115.5h-338v1312h-367q-12 -89 -24.5 -186
t-26.5 -194.5t-28 -191t-27.5 -176.5t-27.5 -150q-27 -139 -65 -236.5t-101.5 -149t-167.5 -51.5zM1135 146h147q193 0 284.5 69.5t91.5 211.5q0 99 -44.5 157t-134.5 83t-226 25h-118v-546z" />
    <glyph glyph-name="uni040A" unicode="&#x40a;" horiz-adv-x="1962" 
d="M200 0v1462h170v-622h642v622h172v-622h137q208 0 330 -53t175.5 -146t53.5 -214q0 -196 -128 -311.5t-399 -115.5h-341v690h-642v-690h-170zM1184 146h147q191 0 282.5 69.5t91.5 211.5q0 99 -44.5 157t-134 83t-225.5 25h-117v-546z" />
    <glyph glyph-name="uni040B" unicode="&#x40b;" horiz-adv-x="1502" 
d="M1035 1462v-152h-509v-418h407q200 0 306 -93t106 -276v-523h-169v503q0 123 -58 181t-198 58h-394v-742h-170v1310h-338v152h1017z" />
    <glyph glyph-name="uni040C" unicode="&#x40c;" horiz-adv-x="1249" 
d="M1248 0h-206l-672 742v-742h-170v1462h170v-708l655 708h195l-647 -710zM967 1936v-20q-20 -29 -54.5 -69.5t-76.5 -85t-84.5 -84.5t-78.5 -69h-111v24q32 38 70 91.5t74 110t60 102.5h201z" />
    <glyph glyph-name="uni040E" unicode="&#x40e;" horiz-adv-x="1265" 
d="M1265 1462l-476 -1060q-62 -140 -126 -234t-152 -141t-223 -47q-58 0 -107.5 8.5t-88.5 21.5v169q40 -19 86.5 -29.5t98.5 -10.5q77 0 132 23.5t97 75t80 136.5l-564 1088h186l416 -817q8 -15 17 -34.5t18 -40t16 -40.5h7q6 15 13.5 35t15.5 40t14 34l359 823h181z
M1018 1914q-9 -101 -50.5 -169t-121.5 -102.5t-205 -34.5q-129 0 -207.5 33.5t-116 101.5t-44.5 171h156q11 -110 59 -150t156 -40q96 0 151 42t66 148h157z" />
    <glyph glyph-name="uni040F" unicode="&#x40f;" horiz-adv-x="1491" 
d="M1289 0h-462v-382h-175v382h-452v1462h170v-1310h751v1310h168v-1462z" />
    <glyph glyph-name="uni0410" unicode="&#x410;" horiz-adv-x="1295" 
d="M1117 0l-180 464h-586l-179 -464h-172l572 1468h153l568 -1468h-176zM886 615l-171 461q-6 18 -19.5 59t-27.5 85t-23 71q-10 -41 -21.5 -81.5t-22.5 -75t-19 -58.5l-174 -461h478z" />
    <glyph glyph-name="uni0411" unicode="&#x411;" horiz-adv-x="1253" 
d="M200 0v1462h859v-150h-689v-472h227q211 0 330 -52t167.5 -145t48.5 -216q0 -202 -120.5 -314.5t-399.5 -112.5h-423zM370 146h235q198 0 280.5 69.5t82.5 211.5q0 99 -40 157t-126 83t-226 25h-206v-546z" />
    <glyph glyph-name="uni0412" unicode="&#x412;" horiz-adv-x="1323" 
d="M200 1462h414q274 0 412 -82t138 -279q0 -85 -32.5 -152.5t-94.5 -111.5t-153 -61v-10q96 -15 170 -55t116 -112t42 -183q0 -135 -62.5 -228t-176.5 -140.5t-270 -47.5h-503v1462zM370 835h280q191 0 264.5 63t73.5 184q0 125 -87.5 180t-278.5 55h-252v-482zM370 692
v-547h304q195 0 276 76.5t81 206.5q0 83 -36.5 142t-118 90.5t-217.5 31.5h-289z" />
    <glyph glyph-name="uni0413" unicode="&#x413;" horiz-adv-x="1065" 
d="M1021 1462v-152h-651v-1310h-170v1462h821z" />
    <glyph glyph-name="uni0414" unicode="&#x414;" horiz-adv-x="1401" 
d="M1174 1462v-1310h180v-534h-163v382h-1016v-382h-163v534h112q75 128 140.5 287.5t117 334t84 350.5t41.5 338h667zM1005 1309h-348q-9 -124 -40 -276.5t-79.5 -312.5t-108 -307t-125.5 -261h701v1157z" />
    <glyph glyph-name="uni0415" unicode="&#x415;" horiz-adv-x="1138" 
d="M1014 0h-814v1462h814v-150h-644v-473h607v-148h-607v-541h644v-150z" />
    <glyph glyph-name="uni0416" unicode="&#x416;" horiz-adv-x="1723" 
d="M598 752l-572 710h189l564 -708v708h164v-708l564 708h189l-572 -709l593 -753h-196l-578 741v-741h-164v741l-579 -741h-196z" />
    <glyph glyph-name="uni0417" unicode="&#x417;" horiz-adv-x="1194" 
d="M1053 1119q0 -149 -92 -235.5t-246 -112.5v-7q180 -26 274 -116t94 -236q0 -129 -64.5 -226.5t-193.5 -151.5t-321 -54q-119 0 -227 18.5t-198 61.5v157q62 -30 134 -52t146.5 -33.5t142.5 -11.5q198 0 300.5 76.5t102.5 215.5q0 143 -118.5 208.5t-332.5 65.5h-210v143
h203q144 0 239 33.5t142.5 95t47.5 145.5q0 115 -83.5 177t-217.5 62q-139 0 -230 -35.5t-177 -91.5l-82 116q58 42 132 76.5t164 55t194 20.5q155 0 261 -46.5t161 -128.5t55 -189z" />
    <glyph glyph-name="uni0418" unicode="&#x418;" horiz-adv-x="1556" 
d="M202 1462h159v-845q0 -48 -1 -104.5t-3 -110.5t-4.5 -98t-4.5 -68h8l814 1226h187v-1462h-159v835q0 53 2 112.5t4.5 115.5t5.5 100.5t4 68.5h-9l-815 -1232h-188v1462z" />
    <glyph glyph-name="uni0419" unicode="&#x419;" horiz-adv-x="1556" 
d="M202 1462h159v-845q0 -48 -1 -104.5t-3 -110.5t-4.5 -98t-4.5 -68h8l814 1226h187v-1462h-159v835q0 53 2 112.5t4.5 115.5t5.5 100.5t4 68.5h-9l-815 -1232h-188v1462zM1176 1914q-9 -101 -50.5 -169t-121.5 -102.5t-205 -34.5q-129 0 -207.5 33.5t-116 101.5t-44.5 171
h156q11 -110 59 -150t156 -40q96 0 151 42t66 148h157z" />
    <glyph glyph-name="uni041A" unicode="&#x41a;" horiz-adv-x="1249" 
d="M1248 0h-206l-672 742v-742h-170v1462h170v-708l655 708h195l-647 -710z" />
    <glyph glyph-name="uni041B" unicode="&#x41b;" horiz-adv-x="1440" 
d="M1240 0h-170v1312h-474q-14 -112 -30 -234t-33 -243t-34 -229t-34 -192q-26 -139 -64.5 -236.5t-102 -149t-167.5 -51.5q-35 0 -69.5 7t-60.5 17v143q23 -10 51.5 -17t60.5 -7q63 0 99.5 50.5t58 128.5t37.5 160q13 68 30 172t36 236.5t39.5 283.5t40.5 311h786v-1462z
" />
    <glyph glyph-name="uni041C" unicode="&#x41c;" horiz-adv-x="1842" 
d="M843 0l-491 1294h-8q4 -41 7 -100t5 -128.5t2 -141.5v-924h-158v1462h252l463 -1216h7l470 1216h250v-1462h-168v936q0 65 2 130.5t5 124t6 101.5h-8l-497 -1292h-139z" />
    <glyph glyph-name="uni041D" unicode="&#x41d;" horiz-adv-x="1510" 
d="M1308 0h-170v689h-768v-689h-170v1462h170v-623h768v623h170v-1462z" />
    <glyph glyph-name="uni041E" unicode="&#x41e;" horiz-adv-x="1593" 
d="M1468 733q0 -169 -43 -307.5t-127.5 -238t-209.5 -153.5t-290 -54q-170 0 -296.5 54t-210 154t-125 239t-41.5 308q0 224 74 393t224.5 263t377.5 94q217 0 365.5 -93t225 -261.5t76.5 -397.5zM304 733q0 -186 53 -322t162.5 -210t278.5 -74q170 0 278.5 74t160.5 210
t52 322q0 283 -118.5 442.5t-369.5 159.5q-170 0 -280 -73t-163.5 -207.5t-53.5 -321.5z" />
    <glyph glyph-name="uni041F" unicode="&#x41f;" horiz-adv-x="1491" 
d="M200 0v1462h1089v-1462h-168v1312h-751v-1312h-170z" />
    <glyph glyph-name="uni0420" unicode="&#x420;" horiz-adv-x="1232" 
d="M582 1462q283 0 413.5 -110.5t130.5 -316.5q0 -93 -30.5 -176.5t-98.5 -147t-178.5 -100t-270.5 -36.5h-178v-575h-170v1462h382zM566 1317h-196v-596h159q140 0 233.5 30t140.5 97.5t47 179.5q0 146 -93 217.5t-291 71.5z" />
    <glyph glyph-name="uni0421" unicode="&#x421;" horiz-adv-x="1290" 
d="M825 1333q-121 0 -217.5 -41.5t-164 -120t-103.5 -189.5t-36 -250q0 -184 57.5 -319.5t172 -209.5t286.5 -74q98 0 184.5 16.5t168.5 41.5v-148q-80 -30 -168 -44.5t-209 -14.5q-223 0 -372.5 92.5t-224 261.5t-74.5 399q0 166 46.5 303.5t136 237.5t220 154.5
t299.5 54.5q111 0 214 -22t186 -63l-68 -144q-70 32 -153.5 55.5t-180.5 23.5z" />
    <glyph glyph-name="uni0422" unicode="&#x422;" horiz-adv-x="1128" 
d="M649 0h-171v1312h-460v150h1089v-150h-458v-1312z" />
    <glyph glyph-name="uni0423" unicode="&#x423;" horiz-adv-x="1265" 
d="M1265 1462l-476 -1060q-62 -140 -126 -234t-152 -141t-223 -47q-58 0 -107.5 8.5t-88.5 21.5v169q40 -19 86.5 -29.5t98.5 -10.5q77 0 132 23.5t97 75t80 136.5l-564 1088h186l416 -817q8 -15 17 -34.5t18 -40t16 -40.5h7q6 15 13.5 35t15.5 40t14 34l359 823h181z" />
    <glyph glyph-name="uni0424" unicode="&#x424;" horiz-adv-x="1632" 
d="M899 1483v-180q232 -4 369 -76t197 -193t60 -274q0 -104 -32 -202t-104 -176.5t-192.5 -126t-297.5 -50.5v-225h-168v225q-181 3 -302 52t-192 128t-101.5 176t-30.5 197q0 111 33 208.5t106.5 172t193.5 118t293 46.5v180h168zM731 1159q-166 -4 -265.5 -53.5
t-143.5 -137.5t-44 -208q0 -126 48.5 -217.5t149 -142t255.5 -55.5v814zM899 1159v-814q160 5 260 57t147 144t47 216q0 121 -44 208.5t-143.5 136t-266.5 52.5z" />
    <glyph glyph-name="uni0425" unicode="&#x425;" horiz-adv-x="1183" 
d="M1176 0h-193l-395 644l-401 -644h-181l487 762l-453 700h189l365 -583l367 583h180l-452 -697z" />
    <glyph glyph-name="uni0426" unicode="&#x426;" horiz-adv-x="1510" 
d="M1464 150v-532h-163v382h-1101v1462h170v-1310h751v1310h168v-1312h175z" />
    <glyph glyph-name="uni0427" unicode="&#x427;" horiz-adv-x="1420" 
d="M1219 0h-169v606q-117 -42 -222 -68t-233 -26q-207 0 -317.5 95.5t-110.5 274.5v580h170v-556q0 -121 64.5 -182.5t210.5 -61.5q123 0 220.5 22.5t217.5 64.5v713h169v-1462z" />
    <glyph glyph-name="uni0428" unicode="&#x428;" horiz-adv-x="2113" 
d="M1911 0h-1711v1462h170v-1310h599v1310h170v-1310h600v1310h172v-1462z" />
    <glyph glyph-name="uni0429" unicode="&#x429;" horiz-adv-x="2123" 
d="M2060 150v-532h-163v382h-1697v1462h170v-1310h586v1310h172v-1310h587v1310h170v-1312h175z" />
    <glyph glyph-name="uni042A" unicode="&#x42a;" horiz-adv-x="1405" 
d="M356 0v1312h-341v150h510v-622h239q199 0 316 -53.5t168.5 -147t51.5 -212.5q0 -196 -124 -311.5t-387 -115.5h-433zM525 146h245q182 0 268 69.5t86 211.5q0 99 -42 157t-126.5 83t-212.5 25h-218v-546z" />
    <glyph glyph-name="uni042B" unicode="&#x42b;" horiz-adv-x="1737" 
d="M200 0v1462h170v-622h234q198 0 315 -53.5t168 -147t51 -212.5q0 -196 -123.5 -311.5t-387.5 -115.5h-427zM370 145h240q181 0 266.5 70t85.5 212q0 99 -41.5 156.5t-125 82t-210.5 24.5h-215v-545zM1360 0v1462h170v-1462h-170z" />
    <glyph glyph-name="uni042C" unicode="&#x42c;" horiz-adv-x="1298" 
d="M200 0v1462h170v-622h278q198 0 317.5 -53.5t173 -147t53.5 -212.5q0 -196 -129 -311.5t-392 -115.5h-471zM370 146h283q182 0 273 69.5t91 211.5q0 99 -45 157t-131.5 83t-213.5 25h-257v-546z" />
    <glyph glyph-name="uni042D" unicode="&#x42d;" horiz-adv-x="1291" 
d="M474 1333q-101 0 -186.5 -23t-154.5 -55l-70 143q85 41 192 63t221 22q175 0 304.5 -53.5t214.5 -151.5t127 -231t42 -292q0 -237 -78 -411t-234.5 -269t-391.5 -95q-127 0 -215.5 14.5t-172.5 44.5v148q85 -23 173.5 -40.5t188.5 -17.5q134 0 235.5 37t170.5 109
t105.5 176t39.5 238h-723v150h721q-9 116 -48 207.5t-105 155.5t-155.5 97.5t-200.5 33.5z" />
    <glyph glyph-name="uni042E" unicode="&#x42e;" horiz-adv-x="2146" 
d="M2019 733q0 -169 -40.5 -307.5t-121.5 -238.5t-201.5 -153.5t-279.5 -53.5q-208 0 -349.5 87.5t-216 247t-82.5 373.5h-358v-688h-170v1462h170v-624h361q14 196 89.5 341.5t213.5 225.5t339 80q211 0 354.5 -93.5t217.5 -262.5t74 -396zM906 736q0 -187 49.5 -323.5
t152.5 -211t263 -74.5q164 0 268 74t153 210t49 322t-48.5 321t-151.5 208t-266 73q-162 0 -265.5 -72.5t-153.5 -207t-50 -319.5z" />
    <glyph glyph-name="uni042F" unicode="&#x42f;" horiz-adv-x="1295" 
d="M625 611l-380 -611h-199l409 642q-80 25 -149.5 71.5t-112 128.5t-42.5 210q0 200 136.5 305t406.5 105h401v-1462h-170v611h-300zM925 1317h-225q-121 0 -204.5 -28t-126.5 -88t-43 -157q0 -139 92 -213.5t281 -74.5h226v561z" />
    <glyph glyph-name="uni0430" unicode="&#x430;" horiz-adv-x="1138" 
d="M585 1114q196 0 291 -88t95 -281v-745h-121l-32 162h-8q-46 -60 -96 -100.5t-115.5 -61t-160.5 -20.5q-100 0 -177.5 35t-122 106t-44.5 180q0 164 130 252t396 96l189 8v67q0 142 -61 199t-172 57q-86 0 -164 -25t-148 -59l-51 126q74 38 170 65t202 27zM807 540
l-167 -7q-205 -8 -289 -67t-84 -167q0 -94 57 -139t151 -45q146 0 239 81t93 243v101z" />
    <glyph glyph-name="uni0431" unicode="&#x431;" horiz-adv-x="1218" 
d="M118 658q0 234 45 399.5t139.5 266t243.5 137.5q128 35 260 60.5t257 44.5l29 -146q-63 -9 -132 -20.5t-138 -24t-130 -26t-108 -27.5q-85 -23 -146.5 -80t-97 -157t-42.5 -252h12q30 44 82 87t124 71.5t162 28.5q142 0 237 -61.5t143 -172.5t48 -260q0 -179 -61.5 -301
t-172.5 -183.5t-261 -61.5q-116 0 -207.5 45t-155 132t-97 213t-33.5 288zM624 118q95 0 163.5 40t106 126.5t37.5 225.5q0 174 -66.5 272.5t-212.5 98.5q-91 0 -165 -38.5t-125 -91.5t-74 -95q0 -102 15 -198t52 -173t102.5 -122t166.5 -45z" />
    <glyph glyph-name="uni0432" unicode="&#x432;" horiz-adv-x="1176" 
d="M1046 821q0 -103 -60 -160.5t-155 -77.5v-8q103 -14 177.5 -73.5t74.5 -181.5q0 -94 -45 -166t-141 -113t-250 -41h-472v1096h468q118 0 208.5 -26.5t142.5 -86.5t52 -162zM910 320q0 97 -73.5 140t-213.5 43h-281v-368h285q138 0 210.5 42.5t72.5 142.5zM877 802
q0 78 -57 116.5t-187 38.5h-291v-315h262q135 0 204 39t69 121z" />
    <glyph glyph-name="uni0433" unicode="&#x433;" horiz-adv-x="883" 
d="M840 1096v-141h-498v-955h-167v1096h665z" />
    <glyph glyph-name="uni0434" unicode="&#x434;" horiz-adv-x="1177" 
d="M978 1096v-955h157v-520h-161v379h-776v-379h-159v520h86q94 130 156 285t94 325.5t34 344.5h569zM817 964h-260q-9 -146 -42.5 -297t-88.5 -287.5t-128 -238.5h519v823z" />
    <glyph glyph-name="uni0435" unicode="&#x435;" horiz-adv-x="1150" 
d="M597 1116q140 0 240 -62t153 -173.5t53 -260.5v-103h-757q3 -193 96 -294t262 -101q104 0 184 19t166 56v-146q-83 -37 -164.5 -54t-192.5 -17q-158 0 -275.5 64.5t-182.5 189.5t-65 306q0 177 59.5 306.5t168 199.5t255.5 70zM595 980q-133 0 -212 -87t-94 -243h580
q-1 98 -30.5 172.5t-89.5 116t-154 41.5z" />
    <glyph glyph-name="uni0436" unicode="&#x436;" horiz-adv-x="1505" 
d="M1459 1096l-456 -533l495 -563h-190l-480 556v-556h-155v556l-479 -556h-190l495 563l-457 533h183l448 -532v532h155v-532l450 532h181z" />
    <glyph glyph-name="uni0437" unicode="&#x437;" horiz-adv-x="990" 
d="M457 1116q123 0 213 -33.5t139 -97.5t49 -156q0 -99 -54 -158t-149 -85v-8q67 -18 121.5 -51.5t87 -88t32.5 -135.5q0 -92 -50 -165.5t-152 -115.5t-258 -42q-77 0 -146 8.5t-125 24.5t-98 38v151q70 -34 164 -60t203 -26q84 0 151 19.5t106.5 63t39.5 114.5
q0 65 -35 107.5t-104.5 63t-175.5 20.5h-147v136h121q141 0 225 40t84 135q0 82 -65 122.5t-186 40.5q-90 0 -159 -18.5t-149 -52.5l-59 133q86 38 180 57t196 19z" />
    <glyph glyph-name="uni0438" unicode="&#x438;" horiz-adv-x="1302" 
d="M333 1096v-689q0 -20 -1 -51.5t-3 -67t-3.5 -68t-3.5 -53.5l598 929h204v-1096h-155v672q0 32 1 82t3 98.5t3 75.5l-596 -928h-205v1096h158z" />
    <glyph glyph-name="uni0439" unicode="&#x439;" horiz-adv-x="1302" 
d="M333 1096v-689q0 -20 -1 -51.5t-3 -67t-3.5 -68t-3.5 -53.5l598 929h204v-1096h-155v672q0 32 1 82t3 98.5t3 75.5l-596 -928h-205v1096h158zM1042 1547q-9 -101 -50.5 -169t-121.5 -102.5t-205 -34.5q-129 0 -207.5 33.5t-116 101.5t-44.5 171h156q11 -110 59 -150
t156 -40q96 0 151 42t66 148h157z" />
    <glyph glyph-name="uni043A" unicode="&#x43a;" horiz-adv-x="1058" 
d="M814 1096h183l-473 -529l511 -567h-195l-498 556v-556h-167v1096h167v-532z" />
    <glyph glyph-name="uni043B" unicode="&#x43b;" horiz-adv-x="1172" 
d="M997 0h-169v957h-333q-20 -259 -50.5 -443.5t-76 -301t-110 -171t-153.5 -54.5q-27 0 -51 3t-41 10v126q13 -4 27.5 -6t30.5 -2q45 0 82.5 37.5t68 113.5t54.5 192.5t42.5 275t32.5 359.5h646v-1096z" />
    <glyph glyph-name="uni043C" unicode="&#x43c;" horiz-adv-x="1502" 
d="M1332 1096v-1096h-150v714q0 44 2.5 89.5t6.5 91.5h-6l-364 -895h-141l-355 895h-6q3 -46 4.5 -91.5t1.5 -95.5v-708h-151v1096h223l354 -896l359 896h222z" />
    <glyph glyph-name="uni043D" unicode="&#x43d;" horiz-adv-x="1296" 
d="M342 1096v-460h611v460h166v-1096h-166v495h-611v-495h-167v1096h167z" />
    <glyph glyph-name="uni043E" unicode="&#x43e;" horiz-adv-x="1232" 
d="M1120 550q0 -135 -35 -241t-101 -179t-159.5 -111.5t-211.5 -38.5q-110 0 -201.5 38.5t-158 111.5t-103 179t-36.5 241q0 180 61 306.5t174.5 193t270.5 66.5q150 0 262.5 -67t175 -193.5t62.5 -305.5zM286 550q0 -132 35 -229t108 -150t188 -53q114 0 187.5 53
t108.5 150t35 229q0 131 -35 226.5t-108 147.5t-189 52q-171 0 -250.5 -113t-79.5 -313z" />
    <glyph glyph-name="uni043F" unicode="&#x43f;" horiz-adv-x="1270" 
d="M1093 1096v-1096h-167v953h-584v-953h-167v1096h918z" />
    <glyph glyph-name="uni0440" unicode="&#x440;" horiz-adv-x="1253" 
d="M690 1116q205 0 327 -141t122 -424q0 -187 -56 -314t-157.5 -192t-239.5 -65q-87 0 -153 23t-113 62t-78 85h-12q3 -39 7.5 -94t4.5 -96v-450h-167v1586h137l22 -162h8q32 50 78 91.5t112.5 66t157.5 24.5zM661 976q-114 0 -183.5 -44t-101.5 -131.5t-34 -219.5v-32
q0 -139 30.5 -235t101 -146t189.5 -50q102 0 170 55t101.5 153.5t33.5 226.5q0 194 -75.5 308.5t-231.5 114.5z" />
    <glyph glyph-name="uni0441" unicode="&#x441;" horiz-adv-x="981" 
d="M614 -20q-148 0 -261 61t-176 186t-63 315q0 199 66.5 325.5t183.5 187.5t266 61q82 0 158.5 -16.5t125.5 -41.5l-50 -139q-50 20 -115.5 36t-122.5 16q-114 0 -189.5 -49t-113 -144t-37.5 -234q0 -133 36.5 -227t109 -143.5t181.5 -49.5q87 0 157 18.5t127 43.5v-148
q-55 -28 -122.5 -43t-160.5 -15z" />
    <glyph glyph-name="uni0442" unicode="&#x442;" horiz-adv-x="964" 
d="M922 955h-361v-955h-164v955h-356v141h881v-141z" />
    <glyph glyph-name="uni0443" unicode="&#x443;" horiz-adv-x="1026" 
d="M2 1096h178l242 -636q21 -56 39 -107.5t32 -98.5t22 -91h7q14 50 40 131.5t56 166.5l229 635h179l-477 -1257q-38 -101 -88.5 -176t-122.5 -115.5t-174 -40.5q-47 0 -83 5.5t-62 12.5v133q22 -5 53.5 -9t65.5 -4q62 0 107.5 23.5t78.5 68.5t57 107l60 154z" />
    <glyph glyph-name="uni0444" unicode="&#x444;" horiz-adv-x="1465" 
d="M812 1556v-444q163 -14 284 -84.5t188 -191.5t67 -288q0 -164 -64.5 -286t-185 -193t-289.5 -85v-476h-162v476q-163 12 -283.5 82.5t-187.5 192.5t-67 289t64.5 288.5t185.5 192t293 83.5v444h157zM655 974q-127 -11 -209 -64t-121.5 -144t-39.5 -218t40 -218.5
t122 -144.5t208 -65v854zM812 972v-852q126 13 207.5 67t121 145t39.5 216q0 190 -91 297.5t-277 126.5z" />
    <glyph glyph-name="uni0445" unicode="&#x445;" horiz-adv-x="1072" 
d="M436 561l-379 535h190l289 -422l288 422h188l-379 -535l400 -561h-190l-307 447l-309 -447h-188z" />
    <glyph glyph-name="uni0446" unicode="&#x446;" horiz-adv-x="1282" 
d="M1242 -379h-162v379h-905v1096h167v-955h581v955h166v-957h153v-518z" />
    <glyph glyph-name="uni0447" unicode="&#x447;" horiz-adv-x="1243" 
d="M320 1096v-394q0 -103 56.5 -152t164.5 -49q104 0 189 32t172 87v476h166v-1096h-166v491q-92 -59 -181 -93t-213 -34q-169 0 -261.5 88t-92.5 238v406h166z" />
    <glyph glyph-name="uni0448" unicode="&#x448;" horiz-adv-x="1822" 
d="M1645 1096v-1096h-1470v1096h166v-955h485v955h167v-955h486v955h166z" />
    <glyph glyph-name="uni0449" unicode="&#x449;" horiz-adv-x="1838" 
d="M1644 1096v-957h157v-516h-167v377h-1459v1096h166v-955h485v955h167v-955h486v955h165z" />
    <glyph glyph-name="uni044A" unicode="&#x44a;" horiz-adv-x="1407" 
d="M550 1096v-452h317q147 0 243 -35t143 -104t47 -171t-45 -177t-141.5 -116t-251.5 -41h-478v955h-346v141h512zM860 504h-310v-369h312q128 0 201 44.5t73 146.5q0 100 -68.5 139t-207.5 39z" />
    <glyph glyph-name="uni044B" unicode="&#x44b;" horiz-adv-x="1573" 
d="M175 0v1096h167v-452h300q140 0 230.5 -35t134.5 -104t44 -171t-43.5 -177t-136 -116t-240.5 -41h-456zM342 135h273q124 0 198 44t74 147q0 101 -69 140.5t-198 39.5h-278v-371zM1232 0v1096h166v-1096h-166z" />
    <glyph glyph-name="uni044C" unicode="&#x44c;" horiz-adv-x="1208" 
d="M342 644h336q140 0 233 -35t139.5 -104t46.5 -171t-45.5 -177t-140 -116t-243.5 -41h-493v1096h167v-452zM930 326q0 101 -71.5 140.5t-199.5 39.5h-317v-371h318q120 0 195 44.5t75 146.5z" />
    <glyph glyph-name="uni044D" unicode="&#x44d;" horiz-adv-x="1011" 
d="M354 -20q-93 0 -161.5 15t-127.5 43v145q62 -25 133 -43t159 -18q112 0 192.5 41t126 124.5t52.5 208.5h-556v137h554q-13 173 -97 256.5t-248 83.5q-59 0 -129.5 -16.5t-126.5 -37.5l-46 136q58 26 138.5 43.5t162.5 17.5q155 0 272 -58t182.5 -182.5t65.5 -325.5
q0 -191 -69 -318t-191.5 -189.5t-285.5 -62.5z" />
    <glyph glyph-name="uni044E" unicode="&#x44e;" horiz-adv-x="1698" 
d="M1584 550q0 -179 -57.5 -307t-164.5 -195.5t-256 -67.5q-139 0 -242.5 60t-163 175t-68.5 280h-291v-495h-166v1096h166v-460h293q14 152 74 259t162 164t240 57q144 0 250.5 -67.5t165 -194t58.5 -304.5zM802 550q0 -138 31.5 -234.5t99 -147t175.5 -50.5
q107 0 174.5 50t99 146.5t31.5 235.5q0 137 -32 232t-99 144.5t-174 49.5t-174.5 -49.5t-99.5 -144.5t-32 -232z" />
    <glyph glyph-name="uni044F" unicode="&#x44f;" horiz-adv-x="1134" 
d="M228 0h-194l316 462q-69 15 -128 51.5t-95.5 100.5t-36.5 159q0 158 105.5 240.5t278.5 82.5h485v-1096h-166v440h-278zM251 772q0 -98 70 -145.5t200 -47.5h272v378h-301q-128 0 -184.5 -51.5t-56.5 -133.5z" />
    <glyph glyph-name="uni0451" unicode="&#x451;" horiz-adv-x="1150" 
d="M597 1116q140 0 240 -62t153 -173.5t53 -260.5v-103h-757q3 -193 96 -294t262 -101q104 0 184 19t166 56v-146q-83 -37 -164.5 -54t-192.5 -17q-158 0 -275.5 64.5t-182.5 189.5t-65 306q0 177 59.5 306.5t168 199.5t255.5 70zM595 980q-133 0 -212 -87t-94 -243h580
q-1 98 -30.5 172.5t-89.5 116t-154 41.5zM300 1394q0 50 26 73t64 23q39 0 65.5 -23t26.5 -73q0 -49 -26.5 -73.5t-65.5 -24.5q-38 0 -64 24.5t-26 73.5zM684 1394q0 50 26 73t63 23q38 0 65 -23t27 -73q0 -49 -27 -73.5t-65 -24.5q-37 0 -63 24.5t-26 73.5z" />
    <glyph glyph-name="uni0452" unicode="&#x452;" horiz-adv-x="1256" 
d="M814 -492q-45 0 -78 7.5t-58 17.5v137q27 -10 54.5 -15.5t59.5 -5.5q58 0 95.5 38t37.5 136v846q0 137 -62 204t-190 67q-121 0 -193.5 -46.5t-104.5 -136t-32 -219.5v-538h-168v1245h-155v124h155v187h166v-187h405v-124h-405v-191q0 -39 -2 -78.5t-5 -74.5h9
q34 58 87 97.5t120.5 60.5t142.5 21q132 0 220.5 -42t133 -130.5t44.5 -227.5v-851q0 -101 -31 -173t-92.5 -110t-153.5 -38z" />
    <glyph glyph-name="uni0453" unicode="&#x453;" horiz-adv-x="883" 
d="M840 1096v-141h-498v-955h-167v1096h665zM799 1569v-20q-20 -29 -54.5 -69.5t-76.5 -85t-84.5 -84.5t-78.5 -69h-111v24q32 38 70 91.5t74 110t60 102.5h201z" />
    <glyph glyph-name="uni0454" unicode="&#x454;" horiz-adv-x="1010" 
d="M633 -20q-154 0 -271 60t-182.5 184.5t-65.5 317.5q0 200 68.5 327t188 187t271.5 60q83 0 161.5 -16t136.5 -42l-49 -137q-57 23 -125 37.5t-127 14.5q-109 0 -184 -38t-116.5 -113.5t-52.5 -188.5h554v-137h-556q6 -123 45 -206.5t114 -125.5t187 -42q90 0 162 18
t133 43v-145q-58 -28 -127.5 -43t-164.5 -15z" />
    <glyph glyph-name="uni0455" unicode="&#x455;" horiz-adv-x="976" 
d="M884 300q0 -105 -52.5 -176.5t-150 -107.5t-232.5 -36q-115 0 -199 18t-147 51v153q67 -33 160 -60t190 -27q142 0 206 46t64 125q0 45 -25.5 79.5t-85.5 67t-166 71.5q-105 40 -181.5 79.5t-118 96.5t-41.5 148q0 139 112.5 213.5t295.5 74.5q99 0 185.5 -19.5
t161.5 -52.5l-56 -133q-68 29 -145 49t-157 20q-115 0 -176.5 -38t-61.5 -104q0 -51 28.5 -84t91.5 -62t166 -68q103 -38 178 -78.5t115.5 -98t40.5 -147.5z" />
    <glyph glyph-name="uni0456" unicode="&#x456;" horiz-adv-x="517" 
d="M341 1096v-1096h-166v1096h166zM260 1506q41 0 70.5 -26.5t29.5 -82.5q0 -55 -29.5 -82t-70.5 -27q-43 0 -71.5 27t-28.5 82q0 56 28.5 82.5t71.5 26.5z" />
    <glyph glyph-name="uni0457" unicode="&#x457;" horiz-adv-x="517" 
d="M341 0h-166v1096h166v-1096zM-25 1394q0 50 26 73t64 23q39 0 65.5 -23t26.5 -73q0 -49 -26.5 -73.5t-65.5 -24.5q-38 0 -64 24.5t-26 73.5zM359 1394q0 50 26 73t63 23q38 0 65 -23t27 -73q0 -49 -27 -73.5t-65 -24.5q-37 0 -63 24.5t-26 73.5z" />
    <glyph glyph-name="uni0458" unicode="&#x458;" horiz-adv-x="517" 
d="M43 -492q-51 0 -89 7.5t-66 17.5v135q31 -10 63 -15.5t72 -5.5q68 0 110 38t42 138v1273h166v-1269q0 -100 -32 -171.5t-98 -109.5t-168 -38zM160 1397q0 56 28.5 82.5t71.5 26.5q41 0 70.5 -26.5t29.5 -82.5q0 -55 -29.5 -82t-70.5 -27q-43 0 -71.5 27t-28.5 82z" />
    <glyph glyph-name="uni0459" unicode="&#x459;" horiz-adv-x="1719" 
d="M930 1096v-452h266q141 0 232.5 -35t136 -104t44.5 -171t-44.5 -177t-140 -116t-249.5 -41h-413v955h-269q-19 -259 -49.5 -443t-76 -300t-109.5 -170.5t-151 -54.5q-30 0 -53.5 3t-40.5 10v124q11 -3 25.5 -5.5t30.5 -2.5q45 0 82.5 37.5t68.5 114t55 193.5t43 275.5
t33 359.5h579zM1165 504h-235v-369h238q125 0 200 44.5t75 146.5q0 100 -71 139t-207 39z" />
    <glyph glyph-name="uni045A" unicode="&#x45a;" horiz-adv-x="1821" 
d="M1029 1096v-454h262q144 0 236 -34.5t136.5 -103t44.5 -170.5t-43.5 -177t-138.5 -116t-249 -41h-420v498h-512v-498h-170v1096h170v-458h516v458h168zM1268 504h-243v-369h243q126 0 200.5 44.5t74.5 146.5q0 100 -69.5 139t-205.5 39z" />
    <glyph glyph-name="uni045B" unicode="&#x45b;" horiz-adv-x="1256" 
d="M341 1556v-187h441v-126h-441v-189q0 -40 -2 -79.5t-7 -73.5h11q34 58 86.5 97.5t120 60.5t143.5 21q131 0 219 -42.5t132.5 -131t44.5 -228.5v-678h-164v667q0 137 -62.5 205t-191.5 68q-122 0 -194.5 -46.5t-104 -136t-31.5 -219.5v-538h-166v1243h-155v126h155v187
h166z" />
    <glyph glyph-name="uni045C" unicode="&#x45c;" horiz-adv-x="1058" 
d="M814 1096h183l-473 -529l511 -567h-195l-498 556v-556h-167v1096h167v-532zM851 1569v-20q-20 -29 -54.5 -69.5t-76.5 -85t-84.5 -84.5t-78.5 -69h-111v24q32 38 70 91.5t74 110t60 102.5h201z" />
    <glyph glyph-name="uni045E" unicode="&#x45e;" horiz-adv-x="1026" 
d="M2 1096h178l242 -636q21 -56 39 -107.5t32 -98.5t22 -91h7q14 50 40 131.5t56 166.5l229 635h179l-477 -1257q-38 -101 -88.5 -176t-122.5 -115.5t-174 -40.5q-47 0 -83 5.5t-62 12.5v133q22 -5 53.5 -9t65.5 -4q62 0 107.5 23.5t78.5 68.5t57 107l60 154zM891 1547
q-9 -101 -50.5 -169t-121.5 -102.5t-205 -34.5q-129 0 -207.5 33.5t-116 101.5t-44.5 171h156q11 -110 59 -150t156 -40q96 0 151 42t66 148h157z" />
    <glyph glyph-name="uni045F" unicode="&#x45f;" horiz-adv-x="1273" 
d="M559 0h-384v1096h167v-955h588v955h166v-1096h-375v-377h-162v377z" />
    <glyph glyph-name="uni0490" unicode="&#x490;" horiz-adv-x="1079" 
d="M1036 1763v-453h-666v-1310h-170v1462h677v301h159z" />
    <glyph glyph-name="uni0491" unicode="&#x491;" horiz-adv-x="888" 
d="M843 1417v-451h-501v-966h-167v1096h506v321h162z" />
    <glyph glyph-name="Wgrave" unicode="&#x1e80;" horiz-adv-x="1891" 
d="M1861 1462l-391 -1462h-171l-290 984q-13 42 -24.5 84.5t-21.5 81t-16.5 68t-9.5 44.5q-2 -15 -7.5 -44t-14 -67t-20 -81t-24.5 -87l-282 -983h-171l-388 1462h177l235 -917q12 -46 22.5 -90.5t19 -86.5t15.5 -82t13 -78q5 39 13 81.5t17.5 86.5t21 89t24.5 90l263 907
h175l274 -914q14 -47 26 -93t21.5 -89.5t17 -83t13.5 -74.5q7 49 17 103t23.5 113t29.5 122l235 916h178zM877 1936q24 -46 59.5 -102.5t75 -110t72.5 -91.5v-24h-113q-36 29 -78.5 69t-84.5 84.5t-76 85t-53 69.5v20h198z" />
    <glyph glyph-name="wgrave" unicode="&#x1e81;" horiz-adv-x="1587" 
d="M1067 2l-195 638q-13 41 -24.5 80.5t-21 76t-17 68t-12.5 54.5h-7q-4 -23 -11 -54.5t-16.5 -68.5t-20.5 -77.5t-25 -81.5l-204 -635h-187l-302 1096h172l158 -605q16 -60 30.5 -118.5t25 -110t15.5 -89.5h8q6 25 13.5 60t17 74.5t20.5 79t22 74.5l202 635h179l195 -634
q15 -48 29.5 -100t26.5 -100.5t17 -86.5h8q4 34 15 84t25.5 110t30.5 122l160 605h169l-303 -1096h-193zM728 1569q24 -46 59.5 -102.5t75 -110t72.5 -91.5v-24h-113q-36 29 -78.5 69t-84.5 84.5t-76 85t-53 69.5v20h198z" />
    <glyph glyph-name="Wacute" unicode="&#x1e82;" horiz-adv-x="1891" 
d="M1861 1462l-391 -1462h-171l-290 984q-13 42 -24.5 84.5t-21.5 81t-16.5 68t-9.5 44.5q-2 -15 -7.5 -44t-14 -67t-20 -81t-24.5 -87l-282 -983h-171l-388 1462h177l235 -917q12 -46 22.5 -90.5t19 -86.5t15.5 -82t13 -78q5 39 13 81.5t17.5 86.5t21 89t24.5 90l263 907
h175l274 -914q14 -47 26 -93t21.5 -89.5t17 -83t13.5 -74.5q7 49 17 103t23.5 113t29.5 122l235 916h178zM1236 1936v-20q-20 -29 -54.5 -69.5t-76.5 -85t-84.5 -84.5t-78.5 -69h-111v24q32 38 70 91.5t74 110t60 102.5h201z" />
    <glyph glyph-name="wacute" unicode="&#x1e83;" horiz-adv-x="1587" 
d="M1067 2l-195 638q-13 41 -24.5 80.5t-21 76t-17 68t-12.5 54.5h-7q-4 -23 -11 -54.5t-16.5 -68.5t-20.5 -77.5t-25 -81.5l-204 -635h-187l-302 1096h172l158 -605q16 -60 30.5 -118.5t25 -110t15.5 -89.5h8q6 25 13.5 60t17 74.5t20.5 79t22 74.5l202 635h179l195 -634
q15 -48 29.5 -100t26.5 -100.5t17 -86.5h8q4 34 15 84t25.5 110t30.5 122l160 605h169l-303 -1096h-193zM1086 1569v-20q-20 -29 -54.5 -69.5t-76.5 -85t-84.5 -84.5t-78.5 -69h-111v24q32 38 70 91.5t74 110t60 102.5h201z" />
    <glyph glyph-name="Wdieresis" unicode="&#x1e84;" horiz-adv-x="1891" 
d="M1861 1462l-391 -1462h-171l-290 984q-13 42 -24.5 84.5t-21.5 81t-16.5 68t-9.5 44.5q-2 -15 -7.5 -44t-14 -67t-20 -81t-24.5 -87l-282 -983h-171l-388 1462h177l235 -917q12 -46 22.5 -90.5t19 -86.5t15.5 -82t13 -78q5 39 13 81.5t17.5 86.5t21 89t24.5 90l263 907
h175l274 -914q14 -47 26 -93t21.5 -89.5t17 -83t13.5 -74.5q7 49 17 103t23.5 113t29.5 122l235 916h178zM662 1761q0 50 26 73t64 23q39 0 65.5 -23t26.5 -73q0 -49 -26.5 -73.5t-65.5 -24.5q-38 0 -64 24.5t-26 73.5zM1046 1761q0 50 26 73t63 23q38 0 65 -23t27 -73
q0 -49 -27 -73.5t-65 -24.5q-37 0 -63 24.5t-26 73.5z" />
    <glyph glyph-name="wdieresis" unicode="&#x1e85;" horiz-adv-x="1587" 
d="M1067 2l-195 638q-13 41 -24.5 80.5t-21 76t-17 68t-12.5 54.5h-7q-4 -23 -11 -54.5t-16.5 -68.5t-20.5 -77.5t-25 -81.5l-204 -635h-187l-302 1096h172l158 -605q16 -60 30.5 -118.5t25 -110t15.5 -89.5h8q6 25 13.5 60t17 74.5t20.5 79t22 74.5l202 635h179l195 -634
q15 -48 29.5 -100t26.5 -100.5t17 -86.5h8q4 34 15 84t25.5 110t30.5 122l160 605h169l-303 -1096h-193zM513 1394q0 50 26 73t64 23q39 0 65.5 -23t26.5 -73q0 -49 -26.5 -73.5t-65.5 -24.5q-38 0 -64 24.5t-26 73.5zM897 1394q0 50 26 73t63 23q38 0 65 -23t27 -73
q0 -49 -27 -73.5t-65 -24.5q-37 0 -63 24.5t-26 73.5z" />
    <glyph glyph-name="Ygrave" unicode="&#x1ef2;" horiz-adv-x="1145" 
d="M573 729l389 733h183l-487 -895v-567h-170v559l-488 903h186zM504 1936q24 -46 59.5 -102.5t75 -110t72.5 -91.5v-24h-113q-36 29 -78.5 69t-84.5 84.5t-76 85t-53 69.5v20h198z" />
    <glyph glyph-name="ygrave" unicode="&#x1ef3;" horiz-adv-x="1026" 
d="M2 1096h178l242 -636q21 -56 39 -107.5t32 -98.5t22 -91h7q14 50 40 131.5t56 166.5l229 635h179l-477 -1257q-38 -101 -88.5 -176t-122.5 -115.5t-174 -40.5q-47 0 -83 5.5t-62 12.5v133q22 -5 53.5 -9t65.5 -4q62 0 107.5 23.5t78.5 68.5t57 107l60 154zM445 1569
q24 -46 59.5 -102.5t75 -110t72.5 -91.5v-24h-113q-36 29 -78.5 69t-84.5 84.5t-76 85t-53 69.5v20h198z" />
    <glyph glyph-name="endash" unicode="&#x2013;" horiz-adv-x="1024" 
d="M82 476v148h860v-148h-860z" />
    <glyph glyph-name="emdash" unicode="&#x2014;" horiz-adv-x="2048" 
d="M82 476v148h1884v-148h-1884z" />
    <glyph glyph-name="uni2015" unicode="&#x2015;" horiz-adv-x="2048" 
d="M82 476v148h1884v-148h-1884z" />
    <glyph glyph-name="underscoredbl" unicode="&#x2017;" horiz-adv-x="838" 
d="M842 -451h-846v123h846v-123zM842 -190h-846v122h846v-122z" />
    <glyph glyph-name="quoteleft" unicode="&#x2018;" horiz-adv-x="347" 
d="M39 961l-12 22q18 73 46 156.5t61 167t66 155.5h122q-20 -77 -40.5 -166t-37.5 -176.5t-28 -158.5h-177z" />
    <glyph glyph-name="quoteright" unicode="&#x2019;" horiz-adv-x="347" 
d="M306 1462l15 -22q-18 -73 -46 -156.5t-61 -166.5t-66 -156h-122q15 57 30.5 122t29.5 132t25.5 130t19.5 117h175z" />
    <glyph glyph-name="quotesinglbase" unicode="&#x201a;" horiz-adv-x="501" 
d="M345 237l15 -22q-18 -73 -46 -156.5t-61 -166.5t-66 -156h-122q15 57 30.5 122t29.5 132t25.5 130t19.5 117h175z" />
    <glyph glyph-name="quotereversed" unicode="&#x201b;" horiz-adv-x="347" 
d="M218 1462q10 -71 27 -159t37.5 -177t41.5 -165h-123q-33 73 -66.5 156t-61.5 166.5t-46 156.5l14 22h177z" />
    <glyph glyph-name="quotedblleft" unicode="&#x201c;" horiz-adv-x="714" 
d="M689 1462q-21 -77 -41.5 -166.5t-37.5 -176.5t-27 -158h-177l-15 22q18 73 46.5 156t62 166.5t67.5 156.5h122zM321 1462q-21 -77 -41.5 -166.5t-37.5 -176.5t-27 -158h-176l-12 22q18 73 45.5 156t60.5 166.5t67 156.5h121z" />
    <glyph glyph-name="quotedblright" unicode="&#x201d;" horiz-adv-x="714" 
d="M673 1462l15 -22q-18 -74 -46 -157.5t-61 -166t-66 -155.5h-125q21 76 42 165t38 177t27 159h176zM305 1462l14 -22q-17 -74 -45.5 -157.5t-61.5 -166t-66 -155.5h-120q15 57 30.5 122t29 132t25 130t18.5 117h176z" />
    <glyph glyph-name="quotedblbase" unicode="&#x201e;" horiz-adv-x="837" 
d="M712 237l15 -22q-18 -74 -46 -157.5t-61 -166t-66 -155.5h-125q21 76 42 165t38 177t27 159h176zM344 237l14 -22q-17 -74 -45.5 -157.5t-61.5 -166t-66 -155.5h-120q15 57 30.5 122t29 132t25 130t18.5 117h176z" />
    <glyph glyph-name="dagger" unicode="&#x2020;" horiz-adv-x="1041" 
d="M911 1002l-352 29l47 -1031h-188l45 1031l-333 -29v165l333 -28l-45 417h188l-47 -417l352 28v-165z" />
    <glyph glyph-name="daggerdbl" unicode="&#x2021;" horiz-adv-x="1041" 
d="M567 490l351 27v-160l-351 26l45 -383h-190l44 383l-345 -26v160l345 -27l-39 296l39 281l-345 -28v161l345 -28l-44 384h190l-45 -384l351 28v-161l-351 28l38 -281z" />
    <glyph glyph-name="bullet" unicode="&#x2022;" horiz-adv-x="770" 
d="M171 748q0 87 28 139.5t76.5 76.5t109.5 24t109.5 -24t76.5 -77t28 -139q0 -84 -28 -137.5t-76.5 -78.5t-109.5 -25t-109.5 25t-76.5 78t-28 138z" />
    <glyph glyph-name="ellipsis" unicode="&#x2026;" horiz-adv-x="1593" 
d="M150 104q0 70 34 99.5t83 29.5q51 0 86 -29.5t35 -99.5q0 -69 -35 -100.5t-86 -31.5q-49 0 -83 31.5t-34 100.5zM679 104q0 70 34 99.5t83 29.5q51 0 86 -29.5t35 -99.5q0 -69 -35 -100.5t-86 -31.5q-49 0 -83 31.5t-34 100.5zM1205 104q0 70 34 99.5t83 29.5
q51 0 86 -29.5t35 -99.5q0 -69 -35 -100.5t-86 -31.5q-49 0 -83 31.5t-34 100.5z" />
    <glyph glyph-name="perthousand" unicode="&#x2030;" horiz-adv-x="2398" 
d="M399 1483q150 0 227.5 -119.5t77.5 -337.5t-75 -339.5t-230 -121.5q-144 0 -220.5 121.5t-76.5 339.5t73 337.5t224 119.5zM399 1364q-81 0 -119 -84.5t-38 -253.5t38 -255t119 -86q84 0 125 86t41 255q0 168 -40.5 253t-125.5 85zM1325 1462l-811 -1462h-146l811 1462
h146zM1286 897q149 0 227 -119.5t78 -337.5q0 -217 -75 -338.5t-230 -121.5q-145 0 -221 121.5t-76 338.5q0 218 72.5 337.5t224.5 119.5zM1286 777q-81 0 -119 -84t-38 -253t38 -254.5t119 -85.5q84 0 125 84.5t41 255.5q0 168 -40.5 252.5t-125.5 84.5zM1992 897
q149 0 226.5 -119.5t77.5 -337.5q0 -217 -74.5 -338.5t-229.5 -121.5q-145 0 -221 121.5t-76 338.5q0 218 72.5 337.5t224.5 119.5zM1992 777q-82 0 -120 -84t-38 -253t38 -254.5t120 -85.5q83 0 124 84.5t41 255.5q0 168 -40.5 252.5t-124.5 84.5z" />
    <glyph glyph-name="minute" unicode="&#x2032;" horiz-adv-x="471" 
d="M346 1462h170l-325 -525h-111z" />
    <glyph glyph-name="second" unicode="&#x2033;" horiz-adv-x="825" 
d="M433 937l267 525h170l-326 -525h-111zM80 937l266 525h170l-325 -525h-111z" />
    <glyph glyph-name="guilsinglleft" unicode="&#x2039;" horiz-adv-x="615" 
d="M79 556l340 409l119 -68l-287 -353l287 -353l-119 -69l-340 407v27z" />
    <glyph glyph-name="guilsinglright" unicode="&#x203a;" horiz-adv-x="615" 
d="M194 965l342 -408v-27l-342 -408l-117 69l286 354l-286 352z" />
    <glyph glyph-name="exclamdbl" unicode="&#x203c;" horiz-adv-x="1004" 
d="M325 406h-109l-46 1056h201zM150 104q0 70 34 99.5t85 29.5q50 0 84.5 -29.5t34.5 -99.5q0 -69 -34.5 -100.5t-84.5 -31.5q-51 0 -85 31.5t-34 100.5zM788 406h-109l-46 1056h201zM613 104q0 70 34 99.5t85 29.5q50 0 84.5 -29.5t34.5 -99.5q0 -69 -34.5 -100.5
t-84.5 -31.5q-51 0 -85 31.5t-34 100.5z" />
    <glyph glyph-name="fraction" unicode="&#x2044;" horiz-adv-x="262" 
d="M641 1462l-879 -1462h-142l878 1462h143z" />
    <glyph glyph-name="uni207F" unicode="&#x207f;" horiz-adv-x="816" 
d="M451 1258q127 0 192 -57.5t65 -184.5v-428h-107v422q0 82 -40.5 123t-124.5 41q-118 0 -166 -62t-48 -180v-344h-108v658h87l16 -95h6q34 52 95 79.5t133 27.5z" />
    <glyph glyph-name="franc" unicode="&#x20a3;" horiz-adv-x="1171" 
d="M270 0v272h-176v124h176v1066h789v-150h-624v-526h585v-149h-585v-241h320v-124h-320v-272h-165z" />
    <glyph glyph-name="afii08941" unicode="&#x20a4;" horiz-adv-x="1171" 
d="M690 1481q112 0 200 -22.5t156 -55.5l-59 -131q-64 29 -138 48.5t-157 19.5q-115 0 -180.5 -63t-65.5 -205v-178h412v-124h-412v-177h412v-126h-414q0 -92 -18 -154t-49.5 -100.5t-74.5 -60.5h792v-152h-1024v141q67 13 113.5 51.5t71 106.5t24.5 168h-200v126h200v177
h-200v124h200v139q0 141 42.5 241t133.5 153.5t235 53.5z" />
    <glyph glyph-name="peseta" unicode="&#x20a7;" horiz-adv-x="1574" 
d="M419 1462q269 0 390.5 -110.5t121.5 -316.5q0 -95 -27.5 -178.5t-90.5 -147.5t-167.5 -100t-258.5 -36h-64v-573h-165v1462h261zM408 1316h-85v-596h54q196 0 291 71.5t95 235.5q0 147 -86.5 218t-268.5 71zM1249 1059v-213h227v-128h-227v-439q0 -81 28 -122.5t94 -41.5
q31 0 70.5 6t61.5 13v-124q-24 -11 -67 -20.5t-104 -9.5q-75 0 -128.5 30.5t-82.5 91.5t-29 154v462h-159v77l161 67l58 197h97z" />
    <glyph glyph-name="Euro" unicode="&#x20ac;" horiz-adv-x="1171" 
d="M782 1482q102 0 189.5 -22.5t169.5 -69.5l-70 -136q-57 31 -133 56t-156 25q-78 0 -143 -25t-115 -76t-85 -127.5t-54 -178.5h504v-124h-517q-1 -20 -1.5 -40.5t-0.5 -42.5q0 -21 0.5 -44t1.5 -45h462v-124h-447q23 -121 75.5 -206t136.5 -130t199 -45q79 0 158 19
t143 47v-149q-62 -27 -138.5 -45.5t-173.5 -18.5q-163 0 -279.5 63t-188 181t-100.5 284h-167v124h152q-1 25 -1.5 43t-0.5 45q0 23 1 46.5t1 37.5h-152v124h165q25 169 97 293.5t189.5 192.5t278.5 68z" />
    <glyph glyph-name="uni2105" unicode="&#x2105;" horiz-adv-x="1675" 
d="M1304 1462l-811 -1462h-147l811 1462h147zM1540 334q0 -165 -86.5 -254.5t-229.5 -89.5q-133 0 -220.5 89t-87.5 255q0 165 85.5 254.5t228.5 89.5q134 0 222 -88.5t88 -255.5zM1047 334q0 -107 42 -173.5t139 -66.5q93 0 136 66t43 174q0 109 -41.5 174t-137.5 65
q-97 0 -139 -65t-42 -174zM481 785q-149 0 -247.5 82t-98.5 257q0 123 46.5 200t127.5 113t182 36q53 0 104 -10.5t89 -25.5l-33 -101q-37 14 -80.5 22.5t-82.5 8.5q-112 0 -167 -61.5t-55 -179.5t54 -177.5t163 -59.5q53 0 102 9.5t89 25.5v-101q-39 -18 -91 -28t-102 -10z
" />
    <glyph glyph-name="uni2113" unicode="&#x2113;" horiz-adv-x="1058" 
d="M630 110q76 0 128.5 48.5t61.5 166.5h100q-5 -109 -40.5 -186.5t-101.5 -118t-165 -40.5q-84 0 -154 34.5t-112 111.5t-42 206v240q-47 -17 -96 -31.5t-97 -26.5v113q52 14 100 29.5t93 31.5v493q0 86 29.5 154t93 108t164.5 40q118 0 187 -78.5t69 -221.5
q0 -132 -50 -241.5t-137.5 -191t-200.5 -130.5v-280q0 -108 41 -169t129 -61zM720 1178q0 96 -32 144.5t-96 48.5q-77 0 -104.5 -52t-27.5 -141v-434q128 67 194 175.5t66 258.5z" />
    <glyph glyph-name="uni2116" unicode="&#x2116;" horiz-adv-x="2086" 
d="M197 0v1462h188l686 -1219h7q-2 52 -5.5 121t-5.5 137.5t-2 118.5v842h151v-1462h-184l-693 1223h-8q3 -54 6.5 -124t6 -139.5t2.5 -124.5v-835h-149zM1418 0v131h518v-131h-518zM1676 274q-88 0 -156 40t-106.5 117.5t-38.5 189.5q0 167 82 256t226 89q88 0 156 -40
t107 -116.5t39 -188.5q0 -168 -83 -257.5t-226 -89.5zM1680 386q91 0 133 60t42 175q0 116 -41.5 173t-133.5 57q-91 0 -134 -57t-43 -173q0 -115 42.5 -175t134.5 -60z" />
    <glyph glyph-name="trademark" unicode="&#x2122;" horiz-adv-x="1564" 
d="M658 741v721h179l198 -564l204 564h174v-721h-122v414q0 23 2 72t3 78h-7l-211 -564h-102l-201 564h-8q2 -35 3.5 -77.5t1.5 -62.5v-424h-114zM240 741v617h-209v104h541v-104h-211v-617h-121z" />
    <glyph glyph-name="uni2126" unicode="&#x2126;" horiz-adv-x="1599" 
d="M799 1335q-165 0 -273.5 -62.5t-161.5 -178.5t-53 -277q0 -142 35.5 -262.5t113.5 -224t205 -194.5v-136h-586v150h375q-90 68 -163.5 165t-116.5 224.5t-43 283.5q0 202 79 350.5t228.5 230t360.5 81.5q215 0 365 -80.5t228 -228.5t78 -351q0 -157 -42.5 -285
t-115.5 -225.5t-164 -164.5h374v-150h-586v136q129 90 207 194t113.5 225.5t35.5 261.5q0 162 -54 278t-163.5 178t-275.5 62z" />
    <glyph glyph-name="estimated" unicode="&#x212e;" horiz-adv-x="1268" 
d="M633 -35q-173 0 -291.5 80t-179 209t-60.5 276q0 148 46.5 255t124.5 176t172 102t188 33q151 0 270.5 -69t189.5 -195.5t70 -301.5h-827v-356q44 -47 124.5 -85t172.5 -38q149 0 237.5 61.5t157.5 172.5l72 -41q-48 -76 -108 -139.5t-146 -101.5t-213 -38zM932 616v277
q-38 40 -116.5 79.5t-184.5 39.5q-101 0 -174.5 -35.5t-120.5 -81.5v-279h596z" />
    <glyph glyph-name="oneeighth" unicode="&#x215b;" horiz-adv-x="1686" 
d="M233 0l879 1462h143l-878 -1462h-144zM332 586v566q0 36 1 67.5t3 62t3 59.5q-22 -19 -47 -40t-54 -41l-110 -76l-66 94l268 184h137v-876h-135zM1219 92q88 0 131 38t43 99q0 60 -45.5 101t-128.5 67l-27 10q-48 -21 -80.5 -46.5t-48.5 -58t-16 -73.5q0 -60 43 -98.5
t129 -38.5zM1222 -15q-147 0 -226 65.5t-79 178.5q0 57 21 100t57.5 75t82.5 55q-66 40 -100.5 85t-34.5 123q0 108 82.5 166.5t196.5 58.5q113 0 193 -54.5t80 -164.5q0 -76 -42.5 -126t-107.5 -82q83 -34 131 -90t48 -140q0 -113 -84 -181.5t-218 -68.5zM1224 516
q65 24 103.5 59.5t38.5 93.5q0 56 -39 87t-107 31t-106.5 -31t-38.5 -87t42 -92t107 -61z" />
    <glyph glyph-name="threeeighths" unicode="&#x215c;" horiz-adv-x="1686" 
d="M305 0l879 1462h142l-878 -1462h-143zM304 570q-75 0 -140.5 13.5t-126.5 43.5v121q68 -33 137 -50.5t131 -17.5q108 0 159.5 43t51.5 119t-59.5 110.5t-167.5 34.5h-119v106h119q104 0 152.5 41t48.5 108q0 65 -42.5 97t-106.5 32t-119.5 -21.5t-110.5 -56.5l-68 88
q62 46 132 73t164 27q143 0 216 -63.5t73 -161.5q0 -83 -44.5 -136t-106.5 -72v-7q81 -16 128.5 -68t47.5 -135q0 -119 -85.5 -193.5t-263.5 -74.5zM1254 92q89 0 131.5 38t42.5 99q0 60 -45.5 101t-128.5 67l-27 10q-47 -21 -79.5 -46.5t-49 -58t-16.5 -73.5
q0 -60 43 -98.5t129 -38.5zM1257 -15q-146 0 -225.5 65.5t-79.5 178.5q0 57 21 100t58 75t83 55q-66 40 -100.5 85t-34.5 123q0 108 82.5 166.5t195.5 58.5t193.5 -54.5t80.5 -164.5q0 -76 -43 -126t-108 -82q83 -34 131.5 -90t48.5 -140q0 -113 -84 -181.5t-219 -68.5z
M1259 516q65 24 103.5 59.5t38.5 93.5q0 56 -39 87t-107 31t-106.5 -31t-38.5 -87t42.5 -92t106.5 -61z" />
    <glyph glyph-name="fiveeighths" unicode="&#x215d;" horiz-adv-x="1686" 
d="M298 0l879 1462h142l-878 -1462h-143zM325 567q-67 0 -138 14.5t-115 40.5v128q56 -33 124.5 -52t124.5 -19q95 0 150.5 42.5t55.5 133.5q0 81 -55 125.5t-156 44.5q-52 0 -90.5 -8.5t-68.5 -16.5l-61 39l33 423h491v-105h-380l-20 -234q26 5 56.5 9.5t66.5 4.5
q137 0 227.5 -71.5t90.5 -199.5q0 -142 -86.5 -220.5t-249.5 -78.5zM1252 92q89 0 131.5 38t42.5 99q0 60 -45.5 101t-128.5 67l-26 10q-48 -21 -80.5 -46.5t-49 -58t-16.5 -73.5q0 -60 43 -98.5t129 -38.5zM1256 -15q-147 0 -226.5 65.5t-79.5 178.5q0 57 21 100t58 75
t83 55q-66 40 -100.5 85t-34.5 123q0 108 82.5 166.5t195.5 58.5t193.5 -54.5t80.5 -164.5q0 -76 -43 -126t-108 -82q83 -34 131.5 -90t48.5 -140q0 -113 -84 -181.5t-218 -68.5zM1257 516q65 24 104 59.5t39 93.5q0 56 -39.5 87t-107.5 31t-106.5 -31t-38.5 -87t42.5 -92
t106.5 -61z" />
    <glyph glyph-name="seveneighths" unicode="&#x215e;" horiz-adv-x="1686" 
d="M209 0l879 1462h142l-878 -1462h-143zM200 586l352 761h-458v115h599v-94l-353 -782h-140zM1234 92q89 0 131.5 38t42.5 99q0 60 -45 101t-128 67l-28 10q-48 -21 -80.5 -46.5t-48.5 -58t-16 -73.5q0 -60 43 -98.5t129 -38.5zM1238 -15q-146 0 -225.5 65.5t-79.5 178.5
q0 86 46 140.5t115 89.5q-66 40 -100.5 85t-34.5 123q0 108 82.5 166.5t195.5 58.5t194 -54.5t81 -164.5q0 -76 -43 -126t-108 -82q83 -34 131 -90t48 -140q0 -113 -84 -181.5t-218 -68.5zM1239 516q65 24 103.5 59.5t38.5 93.5q0 56 -38.5 87t-106.5 31q-69 0 -107 -31
t-38 -87t41.5 -92t106.5 -61z" />
    <glyph glyph-name="partialdiff" unicode="&#x2202;" horiz-adv-x="1186" 
d="M651 1480q121 0 202.5 -42.5t130 -118t69.5 -174.5t21 -213q0 -123 -22 -255.5t-68.5 -256.5t-119 -223.5t-173 -158t-230.5 -58.5q-135 0 -214 55t-112.5 144.5t-33.5 194.5q0 78 18 165.5t56 171.5t99 152t147 108.5t199 40.5q93 0 165.5 -45t117.5 -119q2 22 3 46.5
t1 42.5q-1 133 -32 222.5t-92.5 134.5t-154.5 45q-61 0 -131.5 -22t-123.5 -57v159q34 17 79.5 30.5t97 22t101.5 8.5zM637 881q-94 0 -162.5 -49.5t-113 -128t-66 -166.5t-21.5 -165q0 -109 46.5 -180.5t149.5 -71.5q83 0 150.5 49t118.5 130t85 179.5t49 197.5
q-22 86 -83 145.5t-153 59.5z" />
    <glyph glyph-name="uni2206" unicode="&#x2206;" horiz-adv-x="1186" 
d="M677 1462l472 -1360v-102h-1112v104l471 1358h169zM961 150l-274 800q-20 60 -38 117t-33 110t-26 100q-12 -47 -26 -99.5t-30.5 -107.5t-35.5 -112l-278 -808h741z" />
    <glyph glyph-name="product" unicode="&#x220f;" horiz-adv-x="1511" 
d="M199 -495v1957h1114v-1957h-170v1805h-775v-1805h-169z" />
    <glyph glyph-name="summation" unicode="&#x2211;" horiz-adv-x="1289" 
d="M74 -495v105l633 926l-616 820v106h1086v-150h-849l580 -771l-603 -886h937v-150h-1168z" />
    <glyph glyph-name="minus" unicode="&#x2212;" horiz-adv-x="1171" 
d="M103 654v136h963v-136h-963z" />
    <glyph glyph-name="radical" unicode="&#x221a;" horiz-adv-x="1124" 
d="M497 -14l-279 782h-181v133h285l238 -688l517 1476h137l-591 -1703h-126z" />
    <glyph glyph-name="infinity" unicode="&#x221e;" horiz-adv-x="1442" 
d="M1325 720q0 -86 -37 -158.5t-103.5 -115.5t-155.5 -43q-91 0 -168 53t-142 169q-62 -106 -138.5 -162t-164.5 -56t-155.5 40t-105.5 111t-38 165q0 88 37.5 159t105 113t156.5 42q86 0 163 -52.5t141 -167.5q59 104 137 160.5t173 56.5q132 0 213.5 -87t81.5 -227z
M655 723q-52 101 -107 146.5t-126 45.5q-83 0 -131 -55.5t-48 -137.5q0 -79 46 -135t134 -56q68 0 124 46.5t108 145.5zM1199 720q0 83 -49 137.5t-131 54.5q-67 0 -122 -46t-110 -146q51 -98 107 -145t126 -47q82 0 130.5 55t48.5 137z" />
    <glyph glyph-name="integral" unicode="&#x222b;" horiz-adv-x="785" 
d="M146 -492q-37 0 -74 6t-63 15v136q23 -8 55.5 -15.5t66.5 -7.5q96 0 137.5 65t41.5 176v1308q0 129 39 209.5t112 118t173 37.5q33 0 67.5 -4.5t57.5 -12.5v-139q-22 9 -52 16t-62 7q-63 0 -101.5 -30t-55.5 -84.5t-17 -129.5v-1307q0 -192 -88.5 -278t-236.5 -86z" />
    <glyph glyph-name="approxequal" unicode="&#x2248;" horiz-adv-x="1171" 
d="M554 858q-71 32 -120 44.5t-96 12.5q-57 0 -120.5 -34t-114.5 -86v149q50 53 111.5 80t134.5 27q62 0 120.5 -13.5t146.5 -51.5q73 -31 121 -44t93 -13q59 0 122 34t113 86v-147q-48 -52 -109 -80.5t-135 -28.5q-60 0 -119 13t-148 52zM554 463q-71 32 -120 44.5
t-96 12.5q-57 0 -120.5 -34t-114.5 -86v149q50 53 111.5 80t134.5 27q62 0 120.5 -13.5t146.5 -51.5q73 -31 121 -44t93 -13q59 0 122 34t113 86v-147q-48 -52 -109 -80.5t-135 -28.5q-60 0 -119 13t-148 52z" />
    <glyph glyph-name="notequal" unicode="&#x2260;" horiz-adv-x="1171" 
d="M771 1282l123 -57l-111 -232h281v-135h-342l-131 -274h473v-135h-536l-132 -284l-122 55l109 229h-280v135h342l127 274h-469v135h532z" />
    <glyph glyph-name="lessequal" unicode="&#x2264;" horiz-adv-x="1171" 
d="M1065 248l-962 426v95l962 476v-148l-782 -369l782 -333v-147zM103 -1v136h963v-136h-963z" />
    <glyph glyph-name="greaterequal" unicode="&#x2265;" horiz-adv-x="1171" 
d="M103 395l783 331l-783 371v148l962 -476v-95l-962 -426v147zM103 -1v136h963v-136h-963z" />
    <glyph glyph-name="lozenge" unicode="&#x25ca;" horiz-adv-x="1193" 
d="M559 0l-451 735l451 738h73l450 -738l-450 -735h-73zM596 199l322 536l-322 537l-320 -537z" />
    <glyph glyph-name="cyrillicbreve" horiz-adv-x="1182" 
d="M962 1547q-9 -101 -50.5 -169t-121.5 -102.5t-205 -34.5q-129 0 -207.5 33.5t-116 101.5t-44.5 171h156q11 -110 59 -150t156 -40q96 0 151 42t66 148h157z" />
    <glyph glyph-name="caroncommaaccent" horiz-adv-x="1024" 
d="M629 1556v-17q-9 -39 -32 -94.5t-52.5 -112.5t-60.5 -103h-91v23q11 29 21.5 67t20.5 80.5t17.5 83t11.5 73.5h165z" />
    <glyph glyph-name="uni0326" unicode="&#x326;" 
d="M125 -125v-17q-10 -39 -34 -95t-56.5 -113.5t-68.5 -102.5h-91v24q15 34 32.5 88.5t32.5 113t20 102.5h165z" />
    <glyph glyph-name="commaaccentrotate" horiz-adv-x="1024" 
d="M637 1568v-23q-16 -34 -34 -89t-32.5 -113.5t-20.5 -102.5h-165v19q11 38 34.5 93.5t56 113t69.5 102.5h92z" />
    <glyph glyph-name="uni2074" unicode="&#x2074;" horiz-adv-x="712" 
d="M693 1057h-128v-205h-142v205h-402v98l405 580h139v-564h128v-114zM423 1171v207q0 44 1.5 99t4.5 104q-11 -25 -41.5 -72t-53.5 -81l-177 -257h266z" />
    <glyph glyph-name="uni2075" unicode="&#x2075;" horiz-adv-x="712" 
d="M610 1729v-106h-380l-19 -233q26 5 56.5 9t66.5 4q137 0 227 -71t90 -199q0 -142 -86 -220.5t-250 -78.5q-67 0 -137 14t-116 40v128q56 -33 125 -52t124 -19q95 0 151 43t56 133q0 81 -54.5 125.5t-155.5 44.5q-54 0 -92 -8t-69 -16l-60 38l33 424h490z" />
    <glyph glyph-name="uni2077" unicode="&#x2077;" horiz-adv-x="712" 
d="M163 852l353 762h-458v115h600v-94l-354 -783h-141z" />
    <glyph glyph-name="uni2078" unicode="&#x2078;" horiz-adv-x="712" 
d="M357 1744q113 0 193.5 -54.5t80.5 -164.5q0 -76 -43 -126t-108 -82q83 -34 131.5 -90t48.5 -140q0 -113 -84 -181.5t-219 -68.5q-97 0 -165.5 29.5t-104 84.5t-35.5 130q0 57 21 100t58 75t83 55q-66 40 -100.5 85t-34.5 123q0 108 82.5 166.5t195.5 58.5zM328 1259
q-48 -21 -80.5 -46.5t-49 -58t-16.5 -73.5q0 -60 43 -98.5t129 -38.5q89 0 131.5 38t42.5 99q0 60 -45.5 100.5t-128.5 67.5zM355 1639q-68 0 -106.5 -31t-38.5 -87t42.5 -92t106.5 -61q65 24 104 59.5t39 93.5q0 56 -39.5 87t-107.5 31z" />
    <glyph glyph-name="uni2000" unicode="&#x2000;" horiz-adv-x="1024" 
 />
    <glyph glyph-name="uni2001" unicode="&#x2001;" horiz-adv-x="2048" 
 />
    <glyph glyph-name="uni2002" unicode="&#x2002;" horiz-adv-x="1024" 
 />
    <glyph glyph-name="uni2003" unicode="&#x2003;" horiz-adv-x="2048" 
 />
    <glyph glyph-name="uni2004" unicode="&#x2004;" horiz-adv-x="682" 
 />
    <glyph glyph-name="uni2005" unicode="&#x2005;" horiz-adv-x="512" 
 />
    <glyph glyph-name="uni2006" unicode="&#x2006;" horiz-adv-x="342" 
 />
    <glyph glyph-name="uni2007" unicode="&#x2007;" horiz-adv-x="1171" 
 />
    <glyph glyph-name="uni2008" unicode="&#x2008;" horiz-adv-x="538" 
 />
    <glyph glyph-name="uni2009" unicode="&#x2009;" horiz-adv-x="340" 
 />
    <glyph glyph-name="uni200A" unicode="&#x200a;" horiz-adv-x="205" 
 />
    <glyph glyph-name="uni200B" unicode="&#x200b;" 
 />
    <glyph glyph-name="uniFEFF" unicode="&#xfeff;" 
 />
    </font>
</defs>
</svg>
